Незаймані, стережіться / Love Bite (2012) 1080p Ukr/Eng | Sub Eng

Нові коментарі

Нова тема   Відповісти
Останній раз роздавалося staf777 (2019-05-22)
Автор Повідомлення
staf777 
Відео Гуртом - підтримка та поширення
Відео Гуртом - підтримка та поширення


З нами з: 16.11.16
Востаннє: 22.05.19
Повідомлень: 2373

2018-03-29 11:49  
Незаймані, стережіться / Love Bite (2012) 1080p Ukr/Eng | Sub Eng

Незаймані, стережіться / Love Bite (2012) 1080p Ukr/Eng | Sub Eng


Жанр: комедія, жахи
Країна: Велика Британія



Кінокомпанія: WestEnd Films, Ecosse Films, Notting Hill Films
Режисер: Енді Де Еммоні / Andy De Emmony
Актори: Джесіка Зор / Jessica Szohr, Тімоті Сполл / Timothy Spall, Едвард Спелірс / Edward Speleers, Люк Паскуліно / Luke Pasqualino, Кірстон Верейнґ / Kierston Wareing, Джой МакЕвой / Joy McAvoy, Роберт П'ю / Robert Pugh, Даніель Кендрік / Daniel Kendrick та інші

Сюжет:
Джеймі живе в глухому приморському містечку, звідки мріє вибратися. Одного разу на вечірці з'являється американка Джуліана. Вона розумна і зовсім не схожа на місцевих. Але водночас з її появою в місті починають зникати підлітки. Загадковий чоловік попереджає Джеймі - тримайся від цієї дівчини подалі, особливо, якщо ти незайманий...


Тривалість: 01:30:38
Якість: 1080p
Відео:
кодек:
розмір кадру: 1920x816
бітрейт: 8000 кб/с

Аудіо # 1:
мова: українська
переклад: багатоголосий закадровий
кодек: 2.0
бітрейт: 192 кб/с

Аудіо # 2:
мова: англійська
переклад: оригінал
кодек: 2.0
бітрейт: 192 кб/с

Субтитри: (Full, SDH)
мова: англійська
тип: програмні (м'які)
формат: *.srt
Info
General
Unique ID : 252240410228600469812297384633172382497 (0xBDC3BC658A40B95EA0BCDC91D2365321)
Complete name : H:\RELIZI\ Love Bite (2012) 1080p [Ukr Eng][Sub Eng][Hurtom].
Format :
Format version : Version 4 / Version 2
File size : 5.31 GiB
Duration : 1 h 30 min
Overall bit rate : 8 381 kb/s
Movie name : Love Bite (2012) 1080p [Ukr Eng][Sub Eng][Hurtom]
Encoded date : UTC 2018-04-07 17:35:45
Writing application : v9.8.0 ('Kuglblids') 64bit
Writing library : libebml v1.3.4 + v1.4.5
Cover : Yes
Attachments : cover.jpg

Video
ID : 1
Format : AVC
Format/Info : Advanced Video Codec
Format profile : [email protected]
Format settings : CABAC / 5 Ref Frames
Format settings, CABAC : Yes
Format settings, ReFrames : 5 frames
Codec ID : V_MPEG4/ISO/AVC
Duration : 1 h 30 min
Bit rate : 8 000 kb/s
Width : 1 920 pixels
Height : 816 pixels
Display aspect ratio : 2.35:1
Frame rate mode : Constant
Frame rate : 24.000 FPS
Color space : YUV
Chroma subsampling : 4:2:0
Bit depth : 8 bits
Scan type : Progressive
Bits/(Pixel*Frame) : 0.213
Stream size : 5.06 GiB (95%)
Writing library : core 146 r2538 121396c
Encoding settings : cabac=1 / ref=5 / deblock=1:-3:-3 / analyse=0x3:0x133 / me=umh / subme=11 / psy=1 / psy_rd=1.00:0.00 / mixed_ref=1 / me_range=32 / chroma_me=1 / trellis=2 / 8x8dct=1 / cqm=0 / deadzone=21,11 / fast_pskip=0 / chroma_qp_offset=-2 / threads=12 / lookahead_threads=2 / sliced_threads=0 / nr=0 / decimate=0 / interlaced=0 / bluray_compat=0 / constrained_intra=0 / bframes=10 / b_pyramid=2 / b_adapt=2 / b_bias=0 / direct=3 / weightb=1 / open_gop=0 / weightp=2 / keyint=240 / keyint_min=24 / scenecut=40 / intra_refresh=0 / rc=2pass / mbtree=0 / bitrate=8000 / ratetol=1.0 / qcomp=0.60 / qpmin=0 / qpmax=69 / qpstep=4 / cplxblur=20.0 / qblur=0.5 / ip_ratio=1.40 / pb_ratio=1.30 / aq=1:0.80
Language : English
Default : No
Forced : No

Audio #1
ID : 2
Format : AC-3
Format/Info : Audio Coding 3
Codec ID : A_AC3
Duration : 1 h 30 min
Bit rate mode : Constant
Bit rate : 192 kb/s
Channel(s) : 2 channels
Channel positions : Front: L R
Sampling rate : 48.0 kHz
Frame rate : 31.250 FPS (1536 SPF)
Bit depth : 16 bits
Compression mode : Lossy
Stream size : 124 MiB (2%)
Title : [UA-MVO-NLO]
Language : Ukrainian
Service kind : Complete Main
Default : Yes
Forced : Yes

Audio #2
ID : 3
Format : AC-3
Format/Info : Audio Coding 3
Codec ID : A_AC3
Duration : 1 h 30 min
Bit rate mode : Constant
Bit rate : 192 kb/s
Channel(s) : 2 channels
Channel positions : Front: L R
Sampling rate : 48.0 kHz
Frame rate : 31.250 FPS (1536 SPF)
Bit depth : 16 bits
Compression mode : Lossy
Stream size : 124 MiB (2%)
Language : English
Service kind : Complete Main
Default : No
Forced : No

Text #1
ID : 4
Format : UTF-8
Codec ID : S_TEXT/UTF8
Codec ID/Info : UTF-8 Plain Text
Duration : 1 h 26 min
Bit rate : 47 b/s
Count of elements : 764
Stream size : 30.0 KiB (0%)
Language : English
Default : No
Forced : No

Text #2
ID : 5
Format : UTF-8
Codec ID : S_TEXT/UTF8
Codec ID/Info : UTF-8 Plain Text
Duration : 1 h 28 min
Bit rate : 53 b/s
Count of elements : 953
Stream size : 34.8 KiB (0%)
Title : SDH
Language : English
Default : No
Forced : No
Скріншоти





Запис з ТБ: Sando7, POMEO;
Синхронізація: patriot2305;
Джерело: &
Особиста оцінка: 8 - мені сподобалося


 Трекер:    Зареєстрований   

Завантажити / скачати фільм українською



відео для новачків



 Зареєстрований:   2018-04-07 23:02
 Розмір:   5.31 GB 
 Оцінка фільму:   7/10 (Голосів: 5)
   
Інші релізи
   Незаймані, стережіться / Love Bite (2012) patriot2305  2 / 0   1.45 GB   2015-04-03 18:16 
bot 
робот


З нами з: 30.09.07
Востаннє: 26.05.05
Повідомлень: 21365

2018-04-07 23:02  
Тему перенесено з Анонси релізів до форуму Фільми в HD


staf777

zhman 
Поважний учасник


З нами з: 21.12.14
Востаннє: 21.05.19
Повідомлень: 220

2018-12-20 18:18  
бріти не відстають від амерів в плані вульгарності, але я не протиHappy
Ваш часовий пояс: GMT + 2 Години

Нова тема   Відповісти