Дедпул / Deadpool (2016) 1080p H.265 Ukr/Eng | Sub Ukr

Нові коментарі

Нова тема   Відповісти
Автор Повідомлення
Anonymous 







2018-03-29 00:56  
Дедпул / Deadpool (2016) 1080p H.265 Ukr/Eng | Sub Ukr

Дедпул / Deadpool (2016) 1080p H.265 Ukr/Eng | Sub Ukr

Жанр: фантастика, екшн, комедія
Країна: США



Кінокомпанія: Twentieth Century Fox, Marvel Studios
Режисер: Тім Міллер
Актори: Раян Рейнольдс, Ті Джей Міллер, Ед Скрейн, Морена Баккарін, Рейчел Шин, Бріанна Гілдебранд, Стен Лі, Стефан Капічіч, Леслі Аґґамс та інші.

Сюжет:
Колишній солдат, що став найманцем спецназу, зазнав нестандартного експерименту, намагаючись вилікувати рак. Завдяки цьому Вейд Вілсон отримав підвищену здатність до зцілення, неймовірну силу і спритність, а також нестійкий психічний стан, що сформував особливий чорний гумор. Однак його шкіра виявилася знівеченою. В герої народжується нова особистість - Дедпул. Озброївшись новими здібностями і маніакальним почуттям гумору, Вейд Вілсон виходить на полювання за тією людиною, яка зруйнувала його життя і викрала кохану дівчину.


Тривалість: 01:48:06
Якість:
Відео:
кодек: H.265 (HEVC)
розмір кадру: 1920 х 800
бітрейт: 6 521 кб/с
бітова глибина: 8 біт
Увага! Перед завантаженням переконайтесь, що ваш пристрій відтворення (та/або ПЗ) підтримують H.265 (HEVC) та 10 біт

Аудіо # 1:
мова: українська
переклад: професійний дубльований
кодек: 5.1
бітрейт: 448 кб/с

Аудіо # 2:
мова: англійська
переклад: оригінал
кодек: 5.1
бітрейт: 448 кб/с

Субтитри:
мова: українська
тип: програмні (м'які)
формат: *.srt
Скріншоти



Info
General
Unique ID : 42852062438605314823202384794489903475 (0x203D01CC412622191E4BEE96173ED973)
Complete name : D:\Video\Deadpool (2016) 1080p H.265 [UKR_ENG].
Format :
Format version : Version 4 / Version 2
File size : 5.60 GiB
Duration : 1 h 48 min
Overall bit rate : 7 418 kb/s
Movie name : Deadpool - 2016
Encoded date : UTC 2018-03-28 21:37:52
Writing application : v20.0.0 ('I Am The Sun') 64-bit
Writing library : libebml v1.3.5 + v1.4.8

Video
ID : 1
Format : HEVC
Format/Info : High Efficiency Video Coding
Format profile : [email protected]@High
Codec ID : V_MPEGH/ISO/HEVC
Duration : 1 h 48 min
Bit rate : 6 521 kb/s
Width : 1 920 pixels
Height : 800 pixels
Display aspect ratio : 2.40:1
Frame rate mode : Constant
Frame rate : 23.976 (24000/1001) FPS
Color space : YUV
Chroma subsampling : 4:2:0
Bit depth : 8 bits
Bits/(Pixel*Frame) : 0.177
Stream size : 4.92 GiB (88%)
Default : Yes
Forced : No

Audio #1
ID : 2
Format : AC-3
Format/Info : Audio Coding 3
Codec ID : A_AC3
Duration : 1 h 48 min
Bit rate mode : Constant
Bit rate : 448 kb/s
Channel(s) : 6 channels
Channel positions : Front: L C R, Side: L R, LFE
Sampling rate : 48.0 kHz
Frame rate : 31.250 FPS (1536 SPF)
Bit depth : 16 bits
Compression mode : Lossy
Delay relative to video : 24 ms
Stream size : 346 MiB (6%)
Title : Рідна мова | , 5.1, 48 KHz, 448 kbps
Language : Ukrainian
Service kind : Complete Main
Default : Yes
Forced : Yes

Audio #2
ID : 3
Format : AC-3
Format/Info : Audio Coding 3
Codec ID : A_AC3
Duration : 1 h 48 min
Bit rate mode : Constant
Bit rate : 448 kb/s
Channel(s) : 6 channels
Channel positions : Front: L C R, Side: L R, LFE
Sampling rate : 48.0 kHz
Frame rate : 31.250 FPS (1536 SPF)
Bit depth : 16 bits
Compression mode : Lossy
Stream size : 346 MiB (6%)
Language : English
Service kind : Complete Main
Default : No
Forced : No

Text
ID : 4
Format : UTF-8
Codec ID : S_TEXT/UTF8
Codec ID/Info : UTF-8 Plain Text
Duration : 1 h 47 min
Bit rate : 0 b/s
Count of elements : 13
Stream size : 604 Bytes (0%)
Title : Українські | форсовані
Language : Ukrainian
Default : Yes
Forced : Yes

Menu
00:00:00.000 : en:Chapter 1
00:03:04.725 : en:Chapter 2
00:05:53.019 : en:Chapter 3
00:09:30.820 : en:Chapter 4
00:13:19.089 : en:Chapter 5
00:16:48.716 : en:Chapter 6
00:20:12.544 : en:Chapter 7
00:22:06.407 : en:Chapter 8
00:27:09.626 : en:Chapter 9
00:31:58.958 : en:Chapter 10
00:36:51.708 : en:Chapter 11
00:41:06.172 : en:Chapter 12
00:44:45.766 : en:Chapter 13
00:46:56.605 : en:Chapter 14
00:50:10.965 : en:Chapter 15
00:53:18.027 : en:Chapter 16
00:55:33.038 : en:Chapter 17
00:59:07.751 : en:Chapter 18
01:03:05.239 : en:Chapter 19
01:07:06.438 : en:Chapter 20
01:09:15.568 : en:Chapter 21
01:12:29.720 : en:Chapter 22
01:16:46.393 : en:Chapter 23
01:20:43.712 : en:Chapter 24
01:25:53.398 : en:Chapter 25
01:31:03.791 : en:Chapter 26
01:34:46.970 : en:Chapter 27
01:39:52.735 : en:Chapter 28
Джерело:
Особиста оцінка: 10 - без зайвих вагань рекомендую всім!


 Трекер:    Зареєстрований   

Завантажити / скачати фільм українською



відео для новачків



 Зареєстрований:   2018-03-29 00:56
 Розмір:   5.6 GB 
 Оцінка фільму:   9.3/10 (Голосів: 29)
   
Інші релізи
   Дедпул / Deadpool (2016) UHD Remux 2160p 4K HDR H.265 Ukr/Eng | Sub Ukr/Eng Argentum  4 / 0   35.44 GB   2019-02-19 21:52 
   Дедпул / Deadpool (2016) 1080p H.265 Ukr/Eng | Sub Ukr/Eng ukr_anonymous  2 / 0   5.15 GB   2018-08-02 11:09 
   Дедпул / Deadpool (2016) 720p Ukr/Eng | Sub Ukr/Eng leicheman  15 / 0   5.73 GB   2018-04-12 18:32 
   Дедпул / Deadpool (2016) Remux 1080p Ukr/Eng | Sub Ukr/Eng staf777  8 / 0   22.3 GB   2017-01-02 14:55 
   Дедпул / Deadpool (2016) 720p-mini (60 fps) Drool  6 / 0   2.98 GB   2016-05-16 09:48 
   Дедпул / Deadpool (2016) 720p-mini Drool  5 / 0   2.3 GB   2016-05-11 08:43 
   Дедпул / Deadpool (2016) Covenant  22 / 0   1.45 GB   2016-05-10 20:56 
   Дедпул / Deadpool (2016) AVC Ukr/Eng | Sub Ukr/Eng Gelios  19 / 0   1.99 GB   2016-05-08 12:51 
   Дедпул / Deadpool (2016) 1080p Ukr/Eng | Sub Ukr/Eng 11FrYkT  7 / 0   10.13 GB   2016-05-08 12:41 
Я не Бендер 2.0 
Забанено
Забанено


З нами з: 13.03.18
Востаннє: 01.05.18
Повідомлень: 109

2018-03-29 01:48  
Де англійські саби?
Silverheart 
Новенький


З нами з: 08.09.14
Востаннє: 19.08.19
Повідомлень: 12

2018-04-12 16:23  
Марвел він і в Африці Марвел! Класний органічний переклад. На раз. Забагато коктейлю смерті зі сміхом Happy
Ur 
Свій


З нами з: 09.06.09
Востаннє: 08.06.19
Повідомлень: 94

2018-06-17 15:06  
Цитата:
бітова глибина: 8 біт

Цитата:
підтримують H.265 (HEVC) та 10 біт

а чому має бути підтримка 10 біт, якщо тут 8?

Ваш часовий пояс: GMT + 2 Години

Нова тема   Відповісти