Королі вулиць / Street Kings (2008) Remux 1080p 2xUkr/Eng | Sub Ukr/Eng

Нові коментарі

Нова тема   Відповісти
Автор Повідомлення
IronBee 
Поважний учасник


З нами з: 08.02.10
Востаннє: 28.09.20
Повідомлень: 231

2018-03-28 14:26  
Королі вулиць / Street Kings (2008) Remux 1080p 2xUkr/Eng | Sub Ukr/Eng

Королі вулиць / Street Kings (2008) Remux 1080p 2xUkr/Eng | Sub Ukr/Eng


Жанр: бойовик, трилер, драма, кримінальний
Країна: США



Кінокомпанія: Fox Searchlight Pictures, Regency Enterprises, 3 Arts Entertainment
Режисер: Девід Ейер
Актори: Кіану Рівз, Форест Вітакер, Х'ю Лорі, Кріс Еванс, Седрік, Джей Мор, Террі Крюс, Наомі Харріс, Коммон, Джейсон Тейлор, Марта Ігареда, Джон Корбетт

Сюжет:
Поліцейський з Лос-Анджелеса жодного разу в житті не замислювався над тим, що його може чекати за гранню власного затишного світу. Проте з смертю улюбленої дружини в його життя входить темна, нещадна, відчайдушна порожнеча. Ладлоу вимушений діяти, коли його ж власні друзі-соратники звинувачують його у вбивстві. Так починається боротьба людини за своє місце у світі, який все більше і більше контролюється зовнішніми силами.


Тривалість: 01:48:48
Якість: Remux
Відео:
кодек:
розмір кадру: 1920 х 1080
бітрейт: 30,1 Mб/с

Аудіо # 1:
мова: українська | 2+2
переклад: багатоголосий закадровий
кодек: 2.0
бітрейт: 192 кб/с

Аудіо # 2:
мова: українська | ICTV
переклад: багатоголосий закадровий
кодек: 5.1
бітрейт: 448 кб/с

Аудіо # 3:
мова: англійська
переклад: оригінал
кодек: -HD HRA 5.1
бітрейт: 3018 кб/с

Аудіо # 4:
мова: англійська
переклад: коментарі
кодек: 2.0
бітрейт: 224 кб/с

Субтитри:
мова: українська
тип: пререндерні
формат: *.PGS

Субтитри:
мова: англійська
тип: пререндерні
формат: *.PGS
Info
General
Unique ID : 195607793139542503059939750090599714377 (0x9328B0CC3AC0B12DFA6AB59D8E424E49)
Complete name : E:\Films\Королі вулиць Street Kings (2008) Remux 1080p 2UkrEng Sub UkrEng[Hurtom].
Format :
Format version : Version 4 / Version 2
File size : 25.8 GiB
Duration : 1 h 48 min
Overall bit rate mode : Variable
Overall bit rate : 34.0 Mb/s
Encoded date : UTC 2018-03-28 08:51:48
Writing application : v21.0.0 ('Tardigrades Will Inherit The Earth') 64-bit
Writing library : libebml v1.3.5 + v1.4.8

Video
ID : 1
Format : AVC
Format/Info : Advanced Video Codec
Format profile : [email protected]
Format settings : CABAC / 4 Ref Frames
Format settings, CABAC : Yes
Format settings, ReFrames : 4 frames
Codec ID : V_MPEG4/ISO/AVC
Duration : 1 h 48 min
Bit rate mode : Variable
Bit rate : 30.1 Mb/s
Maximum bit rate : 33.2 Mb/s
Width : 1 920 pixels
Height : 1 080 pixels
Display aspect ratio : 16:9
Frame rate mode : Constant
Frame rate : 23.976 (24000/1001) FPS
Color space : YUV
Chroma subsampling : 4:2:0
Bit depth : 8 bits
Scan type : Progressive
Bits/(Pixel*Frame) : 0.605
Stream size : 22.8 GiB (88%)
Default : Yes
Forced : No
Color range : Limited
Color primaries : BT.709
Transfer characteristics : BT.709
Matrix coefficients : BT.709

Audio #1
ID : 2
Format : AC-3
Format/Info : Audio Coding 3
Codec ID : A_AC3
Duration : 1 h 48 min
Bit rate mode : Constant
Bit rate : 192 kb/s
Channel(s) : 2 channels
Channel positions : Front: L R
Sampling rate : 48.0 kHz
Frame rate : 31.250 FPS (1536 SPF)
Bit depth : 16 bits
Compression mode : Lossy
Stream size : 149 MiB (1%)
Title : багатоголосий закадровий 2.0 192 кб/с 2+2
Language : Ukrainian
Service kind : Complete Main
Default : Yes
Forced : No

Audio #2
ID : 3
Format : AC-3
Format/Info : Audio Coding 3
Codec ID : A_AC3
Duration : 1 h 48 min
Bit rate mode : Constant
Bit rate : 448 kb/s
Channel(s) : 6 channels
Channel positions : Front: L C R, Side: L R, LFE
Sampling rate : 48.0 kHz
Frame rate : 31.250 FPS (1536 SPF)
Bit depth : 16 bits
Compression mode : Lossy
Stream size : 349 MiB (1%)
Title : багатоголосий закадровий 5.1 448 кб/с ICTV
Language : Ukrainian
Service kind : Complete Main
Default : No
Forced : No

Audio #3
ID : 4
Format :
Format/Info : Digital Theater Systems
Format profile : HRA / Core
Codec ID : A_DTS
Duration : 1 h 48 min
Bit rate mode : Constant
Bit rate : 3 018 kb/s / 1 509 kb/s
Channel(s) : 6 channels
Channel positions : Front: L C R, Side: L R, LFE
Sampling rate : 48.0 kHz
Frame rate : 93.750 FPS (512 SPF)
Bit depth : 24 bits
Compression mode : Lossy
Stream size : 2.29 GiB (9%)
Language : English
Default : No
Forced : No

Audio #4
ID : 5
Format : AC-3
Format/Info : Audio Coding 3
Codec ID : A_AC3
Duration : 1 h 48 min
Bit rate mode : Constant
Bit rate : 224 kb/s
Channel(s) : 2 channels
Channel positions : Front: L R
Sampling rate : 48.0 kHz
Frame rate : 31.250 FPS (1536 SPF)
Bit depth : 16 bits
Compression mode : Lossy
Stream size : 174 MiB (1%)
Language : English
Service kind : Complete Main
Default : No
Forced : No

Text #1
ID : 6
Format : PGS
Muxing mode : zlib
Codec ID : S_HDMV/PGS
Codec ID/Info : Picture based subtitle format used on BDs/HD-DVDs
Duration : 1 h 39 min
Bit rate : 36.5 kb/s
Count of elements : 2668
Stream size : 25.9 MiB (0%)
Language : Ukrainian
Default : Yes
Forced : No

Text #2
ID : 7
Format : PGS
Muxing mode : zlib
Codec ID : S_HDMV/PGS
Codec ID/Info : Picture based subtitle format used on BDs/HD-DVDs
Duration : 1 h 38 min
Bit rate : 41.3 kb/s
Count of elements : 2646
Stream size : 29.0 MiB (0%)
Language : English
Default : No
Forced : No
Скріншоти




За запис з 2+2 дякую пану РОМЕО, синхронізація - Arsenfpu.
За доріжку від ICTV дякую п. JACKUS, МАКАРОННІК, olgaya.

Джерело: &
Особиста оцінка: 10 - без зайвих вагань рекомендую всім!


Золотий реліз (завантажене не впливає на рейтинг)
 Трекер:    Зареєстрований   

Завантажити / скачати фільм українською



відео для новачків



 Зареєстрований:   2018-03-28 14:26
 Розмір:   25.82 GB 
 Оцінка фільму:   9.7/10 (Голосів: 11)
   
Інші релізи
   Королі вулиць / Street Kings (2008) 1080p 2xUkr/Eng | Sub Ukr/Eng Timm  5 / 0   12.64 GB   2020-09-12 22:14 
   Королі вулиць / Street Kings (2008) AVC 2xUkr/Eng | Sub Ukr/Eng Sando7  8 / 0   2.13 GB   2019-10-13 10:33 
   Королі вулиць / Street Kings (2008) 2xUkr/Eng Arsenfpu  4 / 0   2.14 GB   2016-12-17 23:40 
   Королі вулиць / Street Kings (2008) 1080p Ukr/Eng | Sub Ukr/Eng igor911  5 / 0   5.77 GB   2013-07-23 07:38 
   Королі вулиць / Street Kings (2008) 720p Ukr/Eng | Sub Ukr/Eng Hurtomivets'  2 / 0   7.01 GB   2011-09-30 18:39 
   Королі вулиць / Street Kings (2008) BASTERD-94  1 / 0   1.37 GB   2011-08-23 00:14 
   Королі вулиць / Street Kings (2008) Ukr/Eng | sub Eng JACKUS  1 / 0   2.18 GB   2011-02-28 02:01 
Timm 
Поважний учасник


З нами з: 04.12.15
Востаннє: 28.09.20
Повідомлень: 216

2019-06-30 17:32  
Станьте на роздачу будь ласка
MakRA 
VIP


З нами з: 11.11.18
Востаннє: 29.09.20
Повідомлень: 1120

2019-06-30 20:13  
Ніхто не бажає роздати? Будь ласка!
Ваш часовий пояс: GMT + 2 Години

Нова тема   Відповісти