Паддінґтон: Дилогія / Paddington: Dilogy (2014, 2017) 1080p H.265 Ukr/Eng

Нові коментарі

Нова тема   Відповісти
Автор Повідомлення
Anonymous 







2018-03-28 13:50  
Паддінґтон: Дилогія / Paddington: Dilogy (2014, 2017) 1080p H.265 Ukr/Eng

Паддінґтон: Дилогія / Paddington: Dilogy (2014, 2017) 1080p H.265 Ukr/Eng

Жанр: комедія, сімейний
Країна: США, Велика Британія, Франція


Паддінґтон / Пригоди Паддінгтона / Paddington (2014) 1080p H.265 2Ukr/Eng | Sub Eng

Паддінґтон / Пригоди Паддінгтона / Paddington (2014) 1080p H.265 2Ukr/Eng | Sub Eng

Паддінґтон: Дилогія / Paddington: Dilogy (2014, 2017) 1080p H.265 Ukr/Eng


Жанр: комедія, сімейний
Країна: Велика Британія, Франція



Кінокомпанія: StudioCanal, Anton Capital Entertainment (ACE), TF1 Films Production
Режисер: Пол Кінґ
Актори: Бен Вішоу, Г'ю Бонневіл, Ніколь Кідмен, Саллі Гокінс, Пітер Капальді, Джулі Волтерс та інші.

Сюжет:
Події фільму «Паддінґтон» починаються з того, що в Англію, на Паддінґтонський вокзал Лондона прибуває з далеких перуанських лісів ведмежа. Дружня родина Браунів вирішують взяти маленького та охайного ведмедика собі й називають його на честь залізничної станції Паддінґтоном. Такі справи обіцяють нашому герою безхмарне існування на довгі роки, та все йде шкереберть. Зла таксидермістка надумала зробити з ведмежати опудало для музею...


Тривалість: 01:35:12
Якість:
Відео:
кодек: H.265 (HEVC)
розмір кадру: 1920 х 804
бітрейт: 4 087 кб/с
бітова глибина: 10 біт
Увага! Перед завантаженням переконайтесь, що ваш пристрій відтворення (та/або ПЗ) підтримують H.265 (HEVC) та 10 біт

Аудіо # 1:
мова: українська
переклад: професійний дубльований
кодек: 2.0
бітрейт: 192 кб/с

Аудіо # 2:
мова: українська
переклад: багатоголосий закадровий
кодек: 2.0
бітрейт: 192 кб/с

Аудіо # 3:
мова: англійська
переклад: оригінал
кодек: 5.1
бітрейт: 448 кб/с

Субтитри:
мова: англійська (Full, SDH)
тип: програмні (м'які)
формат: *.srt
Info
General
Unique ID : 125801580846132101422137638277012439975 (0x5EA480CF1CBAC9055666B82018CAC3A7)
Complete name : D:\Video\Paddington. Диологія\Paddington (2014) 1080p H.265 [2UKR_ENG] [Hurtom].
Format :
Format version : Version 4 / Version 2
File size : 3.27 GiB
Duration : 1 h 35 min
Overall bit rate : 4 921 kb/s
Encoded date : UTC 2018-03-28 10:10:36
Writing application : v20.0.0 ('I Am The Sun') 64-bit
Writing library : libebml v1.3.5 + v1.4.8

Video
ID : 1
Format : HEVC
Format/Info : High Efficiency Video Coding
Format profile : Main [email protected]@Main
Codec ID : V_MPEGH/ISO/HEVC
Duration : 1 h 35 min
Bit rate : 4 087 kb/s
Width : 1 920 pixels
Height : 804 pixels
Display aspect ratio : 2.40:1
Frame rate mode : Constant
Frame rate : 23.976 (24000/1001) FPS
Color space : YUV
Chroma subsampling : 4:2:0
Bit depth : 10 bits
Bits/(Pixel*Frame) : 0.110
Stream size : 2.72 GiB (83%)
Writing library : x265 2.5+6-d11482e5fedb:[Windows][MSVC 1910][64 bit] 10bit
Encoding settings : cpuid=1173503 / frame-threads=2 / numa-pools=4 / wpp / no-pmode / no-pme / no-psnr / no-ssim / log-level=2 / input-csp=1 / input-res=1920x804 / interlace=0 / total-frames=136967 / level-idc=0 / high-tier=1 / uhd-bd=0 / ref=4 / no-allow-non-conformance / no-repeat-headers / annexb / no-aud / no-hrd / info / hash=0 / no-temporal-layers / open-gop / min-keyint=23 / keyint=250 / bframes=8 / b-adapt=2 / b-pyramid / bframe-bias=0 / rc-lookahead=25 / lookahead-slices=4 / scenecut=40 / no-intra-refresh / ctu=64 / min-cu-size=8 / rect / no-amp / max-tu-size=32 / tu-inter-depth=1 / tu-intra-depth=1 / limit-tu=0 / rdoq-level=2 / dynamic-rd=0.00 / no-ssim-rd / signhide / no-tskip / nr-intra=0 / nr-inter=0 / no-constrained-intra / no-strong-intra-smoothing / max-merge=3 / limit-refs=3 / limit-modes / me=3 / subme=3 / merange=57 / temporal-mvp / weightp / no-weightb / no-analyze-src-pics / deblock=-1:-1 / sao / no-sao-non-deblock / rd=4 / no-early-skip / rskip / no-fast-intra / no-tskip-fast / no-cu-lossless / no-b-intra / rdpenalty=0 / psy-rd=0.30 / psy-rdoq=2.50 / no-rd-refine / analysis-reuse-mode=0 / no-lossless / cbqpoffs=0 / crqpoffs=0 / rc=crf / crf=19.5 / qcomp=0.60 / qpstep=4 / stats-write=0 / stats-read=0 / ipratio=1.40 / pbratio=1.30 / aq-mode=2 / aq-strength=1.00 / cutree / zone-count=0 / no-strict-cbr / qg-size=32 / no-rc-grain / qpmax=69 / qpmin=0 / no-const-vbv / sar=0 / overscan=0 / videoformat=5 / range=0 / colorprim=2 / transfer=2 / colormatrix=2 / chromaloc=0 / display-window=0 / max-cll=0,0 / min-luma=0 / max-luma=1023 / log2-max-poc-lsb=8 / vui-timing-info / vui-hrd-info / slices=1 / opt-qp-pps / opt-ref-list-length-pps / no-multi-pass-opt-rps / scenecut-bias=0.05 / no-opt-cu-delta-qp / no-aq-motion / no-hdr / no-hdr-opt / no-dhdr10-opt / analysis-reuse-level=5 / scale-factor=0 / refine-intra=0 / refine-inter=0 / refine-mv=0 / no-limit-sao / ctu-info=0
Language : English
Default : Yes
Forced : No

Audio #1
ID : 2
Format : AC-3
Format/Info : Audio Coding 3
Codec ID : A_AC3
Duration : 1 h 35 min
Bit rate mode : Constant
Bit rate : 192 kb/s
Channel(s) : 2 channels
Channel positions : Front: L R
Sampling rate : 48.0 kHz
Frame rate : 31.250 FPS (1536 SPF)
Bit depth : 16 bits
Compression mode : Lossy
Stream size : 131 MiB (4%)
Title : Dubliazh kinoprokat(megogo)
Language : Ukrainian
Service kind : Complete Main
Default : Yes
Forced : Yes

Audio #2
ID : 3
Format : AC-3
Format/Info : Audio Coding 3
Codec ID : A_AC3
Duration : 1 h 35 min
Bit rate mode : Constant
Bit rate : 192 kb/s
Channel(s) : 2 channels
Channel positions : Front: L R
Sampling rate : 48.0 kHz
Frame rate : 31.250 FPS (1536 SPF)
Bit depth : 16 bits
Compression mode : Lossy
Stream size : 131 MiB (4%)
Title : Volia Cine+
Language : Ukrainian
Service kind : Complete Main
Default : No
Forced : No

Audio #3
ID : 4
Format : AC-3
Format/Info : Audio Coding 3
Codec ID : A_AC3
Duration : 1 h 35 min
Bit rate mode : Constant
Bit rate : 448 kb/s
Channel(s) : 6 channels
Channel positions : Front: L C R, Side: L R, LFE
Sampling rate : 48.0 kHz
Frame rate : 31.250 FPS (1536 SPF)
Bit depth : 16 bits
Compression mode : Lossy
Stream size : 305 MiB (9%)
Title : 5.1 @ 448 kbps
Language : English
Service kind : Complete Main
Default : No
Forced : No

Text #1
ID : 5
Format : UTF-8
Codec ID : S_TEXT/UTF8
Codec ID/Info : UTF-8 Plain Text
Duration : 1 h 29 min
Bit rate : 68 b/s
Count of elements : 1240
Stream size : 44.6 KiB (0%)
Title : Full
Language : English
Default : No
Forced : No

Text #2
ID : 6
Format : UTF-8
Codec ID : S_TEXT/UTF8
Codec ID/Info : UTF-8 Plain Text
Duration : 1 h 29 min
Bit rate : 77 b/s
Count of elements : 1418
Stream size : 50.9 KiB (0%)
Title : SDH
Language : English
Default : No
Forced : No

Menu
00:00:00.000 : en:00:00:00.000
00:09:26.149 : en:00:09:26.149
00:16:45.755 : en:00:16:45.755
00:24:45.651 : en:00:24:45.651
00:32:44.921 : en:00:32:44.921
00:40:31.179 : en:00:40:31.179
00:47:55.664 : en:00:47:55.664
00:57:52.469 : en:00:57:52.469
01:03:24.467 : en:01:03:24.467
01:10:31.727 : en:01:10:31.727
01:23:49.983 : en:01:23:49.983
01:27:39.504 : en:01:27:39.504
Скріншоти



Джерело:
Особиста оцінка: 0 - не дивився
Пригоди Паддінгтона 2 / Paddington 2 (2017) 1080p H.265 Ukr/Eng

Пригоди Паддінгтона 2 / Paddington 2 (2017) 1080p H.265 Ukr/Eng

Паддінґтон: Дилогія / Paddington: Dilogy (2014, 2017) 1080p H.265 Ukr/Eng


Жанр: комедія, пригоди, сімейний
Країна: США, Велика Британія, Франція



Кінокомпанія: Studio Canal, Canal+, Heyday Films, Amazon Prime, Anton Capital Entertainment (ACE)
Режисер: Пол Кінґ
Актори: Бен Вішоу, Г'ю Ґрант, Брендан Ґлісон, Г'ю Бонневілль, Саллі Гоукінс, Джулі Волтерс, Джим Бродбент, Майкл Ґембон, Пітер Капальді, Джессіка Гайнс

Сюжет:
Розшукуючи ідеальний подарунок на 100-й день народження своєї тітки Люсі, Паддінґтон знаходить унікальну книжку в античній лавці містера Грубера та влаштовується на дивні роботи, щоб її купити. Але раптом хтось викрадає книгу, і тепер ведмедеві потрібно розшукати злодія.


Тривалість: 01:43:18
Якість:
Відео:
кодек: H.265 (HEVC)
розмір кадру: 1920 х 804
бітрейт: 5 561 кб/с
бітова глибина: 10 біт
Увага! Перед завантаженням переконайтесь, що ваш пристрій відтворення (та/або ПЗ) підтримують H.265 (HEVC) та 10 біт

Аудіо # 1:
мова: українська
переклад: професійний дубльований
кодек: 5.1
бітрейт: 384 кб/с

Аудіо # 2:
мова: англійська
переклад: оригінал
кодек: 5.1
бітрейт: 640 кб/с
Info
General
Unique ID : 329497447006732024265353176091147062815 (0xF7E2E66505175EF6515DB533517F4E1F)
Complete name : D:\Video\Paddington. Диологія\Paddington 2 (2017) 1080p H.265 [UKR_ENG] [Hurtom].
Format :
Format version : Version 4 / Version 2
File size : 4.62 GiB
Duration : 1 h 43 min
Overall bit rate : 6 405 kb/s
Movie name : Paddington 2
Encoded date : UTC 2018-03-26 14:25:39
Writing application : v20.0.0 ('I Am The Sun') 64-bit
Writing library : libebml v1.3.5 + v1.4.8

Video
ID : 1
Format : HEVC
Format/Info : High Efficiency Video Coding
Format profile : Main [email protected]@Main
Codec ID : V_MPEGH/ISO/HEVC
Duration : 1 h 40 min
Bit rate : 5 561 kb/s
Width : 1 920 pixels
Height : 804 pixels
Display aspect ratio : 2.40:1
Frame rate mode : Constant
Frame rate : 24.000 FPS
Color space : YUV
Chroma subsampling : 4:2:0
Bit depth : 10 bits
Bits/(Pixel*Frame) : 0.150
Stream size : 3.89 GiB (84%)
Writing library : x265 2.7+8-613d9f443769:[Windows][MSVC 1913][64 bit] 10bit
Encoding settings : cpuid=1173503 / frame-threads=4 / numa-pools=16 / wpp / no-pmode / no-pme / no-psnr / ssim / log-level=2 / input-csp=1 / input-res=1920x804 / interlace=0 / total-frames=144385 / level-idc=0 / high-tier=1 / uhd-bd=0 / ref=4 / no-allow-non-conformance / no-repeat-headers / annexb / no-aud / no-hrd / info / hash=0 / no-temporal-layers / no-open-gop / min-keyint=1 / keyint=360 / gop-lookahead=0 / bframes=6 / b-adapt=2 / b-pyramid / bframe-bias=0 / rc-lookahead=80 / lookahead-slices=4 / scenecut=40 / radl=0 / no-intra-refresh / ctu=32 / min-cu-size=8 / rect / no-amp / max-tu-size=16 / tu-inter-depth=2 / tu-intra-depth=2 / limit-tu=4 / rdoq-level=1 / dynamic-rd=0.00 / no-ssim-rd / signhide / no-tskip / nr-intra=0 / nr-inter=0 / no-constrained-intra / no-strong-intra-smoothing / max-merge=4 / limit-refs=2 / limit-modes / me=3 / subme=7 / merange=25 / temporal-mvp / weightp / weightb / no-analyze-src-pics / deblock=-1:-1 / no-sao / no-sao-non-deblock / rd=3 / no-early-skip / rskip / no-fast-intra / no-tskip-fast / no-cu-lossless / b-intra / no-splitrd-skip / rdpenalty=2 / psy-rd=3.00 / psy-rdoq=5.00 / no-rd-refine / no-lossless / cbqpoffs=0 / crqpoffs=0 / rc=crf / crf=21.0 / qcomp=0.80 / qpstep=4 / stats-write=0 / stats-read=0 / ipratio=1.40 / pbratio=1.20 / aq-mode=1 / aq-strength=1.00 / cutree / zone-count=0 / no-strict-cbr / qg-size=16 / no-rc-grain / qpmax=69 / qpmin=0 / no-const-vbv / sar=1 / overscan=0 / videoformat=5 / range=0 / colorprim=2 / transfer=2 / colormatrix=2 / chromaloc=0 / display-window=0 / max-cll=0,0 / min-luma=0 / max-luma=1023 / log2-max-poc-lsb=8 / vui-timing-info / vui-hrd-info / slices=1 / no-opt-qp-pps / no-opt-ref-list-length-pps / no-multi-pass-opt-rps / scenecut-bias=0.05 / no-opt-cu-delta-qp / no-aq-motion / no-hdr / no-hdr-opt / no-dhdr10-opt / analysis-reuse-level=5 / scale-factor=0 / refine-intra=0 / refine-inter=0 / refine-mv=0 / no-limit-sao / ctu-info=0 / no-lowpass-dct / refine-mv-type=0 / copy-pic=1 / max-ausize-factor=1.0
Default : Yes
Forced : No

Audio #1
ID : 2
Format : AC-3
Format/Info : Audio Coding 3
Codec ID : A_AC3
Duration : 1 h 43 min
Bit rate mode : Constant
Bit rate : 384 kb/s
Channel(s) : 6 channels
Channel positions : Front: L C R, Side: L R, LFE
Sampling rate : 48.0 kHz
Frame rate : 31.250 FPS (1536 SPF)
Bit depth : 16 bits
Compression mode : Lossy
Stream size : 284 MiB (6%)
Title : iTunes 5.1
Language : Ukrainian
Service kind : Complete Main
Default : Yes
Forced : Yes

Audio #2
ID : 3
Format : AC-3
Format/Info : Audio Coding 3
Codec ID : A_AC3
Duration : 1 h 40 min
Bit rate mode : Constant
Bit rate : 640 kb/s
Channel(s) : 6 channels
Channel positions : Front: L C R, Side: L R, LFE
Sampling rate : 48.0 kHz
Frame rate : 31.250 FPS (1536 SPF)
Bit depth : 16 bits
Compression mode : Lossy
Stream size : 459 MiB (10%)
Language : English
Service kind : Complete Main
Default : No
Forced : No

Menu
00:00:00.000 : en:Chapter 01
00:08:08.500 : en:Chapter 02
00:18:48.541 : en:Chapter 03
00:27:05.958 : en:Chapter 04
00:38:47.333 : en:Chapter 05
00:47:46.875 : en:Chapter 06
00:55:53.666 : en:Chapter 07
01:02:17.458 : en:Chapter 08
01:09:31.833 : en:Chapter 09
01:16:39.000 : en:Chapter 10
01:24:13.208 : en:Chapter 11
01:33:50.208 : en:Chapter 12
Скріншоти



Джерело:
Особиста оцінка: 0 - не дивився



Бронзовий реліз (на рейтинг впливає 75% завантаженого)
 Трекер:    Зареєстрований   

Завантажити / скачати фільм українською



відео для новачків



 Зареєстрований:   2018-03-28 13:50
 Розмір:   7.89 GB 
 Оцінка фільму:   9.6/10 (Голосів: 16)
   
boroznaya 
Попереджень: 1
Попереджень: 1 


З нами з: 02.11.12
Востаннє: 29.09.20
Повідомлень: 2938

2018-06-24 08:26  
Прекрасні фільми для дружнього, сімейного перегляду.
Надзвичайно цікаві історії, які дуже гарно відзняті.
Спасибі релізеру за роботу. Рекомендую до перегляду!

Ваш часовий пояс: GMT + 2 Години

Нова тема   Відповісти