Брудні танці / Dirty Dancing (1987) AVC 3хUkr/Eng | Sub Eng

Нові коментарі

Нова тема   Відповісти
Автор Повідомлення
Arsenfpu 
Відео Гуртом - фільмокрай
Відео Гуртом - фільмокрай


З нами з: 30.04.09
Востаннє: 21.11.19
Повідомлень: 6239

2018-03-28 00:05  
Брудні танці / Dirty Dancing (1987) AVC 3хUkr/Eng | Sub Eng

Брудні танці / Dirty Dancing (1987) AVC 3хUkr/Eng | Sub Eng


Жанр: Драма, Мелодрама, Романтика
Країна: США



Кінокомпанія: Great American Films Limited Partnership | Vestron Pictures Ltd.
Режисер: Еміль Ардоліно
Актори: Дженніфер Грей, Патрік Суейзі, Джері Орбак, Синтія Роудс, Джек Уестон, Джейн Брукер, Келлі Бішоп, Лонні Прайс, Макс Кентор, Чарльз «Хоні» Коулз

Сюжет:
Літо 1963 року. 17-річна Френсіс по прізвиську Бейбі, проводить канікули з батьками в курортному готелі. Вона знайомиться з Джоні, красивим професійним танцюристом, досвідченим в питаннях життя і кохання. Немов зачарована сексуальними ритмами і нічим не стримуваними рухами “брудних танців” в стилі ритм-енд-блюз, Бейбі стає ученицею-партнеркою Джоні - і в танцях і в коханні.


Тривалість: 01:40:31
Якість:
Відео:
кодек:
розмір кадру: 1024x576
бітрейт: 2 499 кб/с

Аудіо # 1:
мова: українська
переклад: двоголосий закадровий
кодек: 2.0
бітрейт: 192 кб/с

Аудіо # 2:
мова: українська
переклад: двоголосий закадровий
кодек: 2.0
бітрейт: 192 кб/с

Аудіо # 3:
мова: українська
переклад: двоголосий закадровий (з 5.1)
кодек: 2.0
бітрейт: 192 кб/с

Аудіо # 4:
мова: англійська
переклад: оригінал
кодек: 2.0
бітрейт: 192 кб/с

Субтитри:
мова: англійська (повні, SDH)
тип: програмні (м'які)
формат:*.srt
Про файл
General
Unique ID : 305822875704537475494904932413429536438 (0xE61357E90C97C1081F2D7DD6D70C56B6)
Complete name : C:\Dirty Dancing (1987) [3xUkr,Eng] AVC [Hurtom].
Format :
Format version : Version 4 / Version 2
File size : 2.32 GiB
Duration : 1 h 40 min
Overall bit rate : 3 303 kb/s
Movie name : Брудні танці / Dirty Dancing (1987)
Encoded date : UTC 2019-10-15 17:27:53
Writing application : v21.0.0 ('Tardigrades Will Inherit The Earth') 32-bit
Writing library : libebml v1.3.5 + v1.4.8
Cover : Yes
Attachments : cover.jpg

Video
ID : 1
Format : AVC
Format/Info : Advanced Video Codec
Format profile : [email protected]
Format settings, CABAC : Yes
Format settings, ReFrames : 4 frames
Codec ID : V_MPEG4/ISO/AVC
Duration : 1 h 40 min
Bit rate : 2 499 kb/s
Width : 1 024 pixels
Height : 576 pixels
Display aspect ratio : 16:9
Frame rate mode : Constant
Frame rate : 23.976 (24000/1001) FPS
Color space : YUV
Chroma subsampling : 4:2:0
Bit depth : 8 bits
Scan type : Progressive
Bits/(Pixel*Frame) : 0.177
Stream size : 1.75 GiB (76%)
Writing library : core 157 r2935 545de2f
Encoding settings : cabac=1 / ref=3 / deblock=1:-1:-1 / analyse=0x3:0x113 / me=hex / subme=7 / psy=1 / psy_rd=1.00:0.15 / mixed_ref=1 / me_range=16 / chroma_me=1 / trellis=1 / 8x8dct=1 / cqm=0 / deadzone=21,11 / fast_pskip=1 / chroma_qp_offset=-3 / threads=12 / lookahead_threads=2 / sliced_threads=0 / nr=0 / decimate=1 / interlaced=0 / bluray_compat=0 / constrained_intra=0 / bframes=3 / b_pyramid=2 / b_adapt=1 / b_bias=0 / direct=1 / weightb=1 / open_gop=0 / weightp=2 / keyint=240 / keyint_min=23 / scenecut=40 / intra_refresh=0 / rc_lookahead=40 / rc=2pass / mbtree=1 / bitrate=2499 / ratetol=1.0 / qcomp=0.60 / qpmin=0 / qpmax=69 / qpstep=4 / cplxblur=20.0 / qblur=0.5 / ip_ratio=1.40 / aq=1:1.00
Default : Yes
Forced : No

Audio #1
ID : 2
Format : AC-3
Format/Info : Audio Coding 3
Mode extension : CM (complete main)
Format settings, Endianness : Big
Codec ID : A_AC3
Duration : 1 h 40 min
Bit rate mode : Constant
Bit rate : 192 kb/s
Channel(s) : 2 channels
Channel positions : Front: L R
Sampling rate : 48.0 kHz
Frame rate : 31.250 FPS (1536 spf)
Compression mode : Lossy
Stream size : 138 MiB (6%)
Title : Інтер
Language : Ukrainian
Default : Yes
Forced : Yes

Audio #2
ID : 3
Format : AC-3
Format/Info : Audio Coding 3
Mode extension : CM (complete main)
Format settings, Endianness : Big
Codec ID : A_AC3
Duration : 1 h 40 min
Bit rate mode : Constant
Bit rate : 192 kb/s
Channel(s) : 2 channels
Channel positions : Front: L R
Sampling rate : 48.0 kHz
Frame rate : 31.250 FPS (1536 spf)
Compression mode : Lossy
Stream size : 138 MiB (6%)
Title : Новий
Language : Ukrainian
Default : No
Forced : No

Audio #3
ID : 4
Format : AC-3
Format/Info : Audio Coding 3
Mode extension : CM (complete main)
Format settings, Endianness : Big
Codec ID : A_AC3
Duration : 1 h 40 min
Bit rate mode : Constant
Bit rate : 192 kb/s
Channel(s) : 2 channels
Channel positions : Front: L R
Sampling rate : 48.0 kHz
Frame rate : 31.250 FPS (1536 spf)
Compression mode : Lossy
Stream size : 138 MiB (6%)
Title : СТБ
Language : Ukrainian
Default : No
Forced : No

Audio #4
ID : 5
Format : AC-3
Format/Info : Audio Coding 3
Mode extension : CM (complete main)
Format settings, Endianness : Big
Codec ID : A_AC3
Duration : 1 h 40 min
Bit rate mode : Constant
Bit rate : 192 kb/s
Channel(s) : 2 channels
Channel positions : Front: L R
Sampling rate : 48.0 kHz
Frame rate : 31.250 FPS (1536 spf)
Compression mode : Lossy
Stream size : 138 MiB (6%)
Language : English
Default : No
Forced : No

Text #1
ID : 6
Format : PGS
Muxing mode : zlib
Codec ID : S_HDMV/PGS
Codec ID/Info : Picture based subtitle format used on BDs/HD-DVDs
Duration : 1 h 37 min
Bit rate : 27.2 kb/s
Count of elements : 1632
Stream size : 18.9 MiB (1%)
Language : English
Default : Yes
Forced : No

Text #2
ID : 7
Format : PGS
Muxing mode : zlib
Codec ID : S_HDMV/PGS
Codec ID/Info : Picture based subtitle format used on BDs/HD-DVDs
Duration : 1 h 38 min
Bit rate : 28.5 kb/s
Count of elements : 1762
Stream size : 20.2 MiB (1%)
Language : English
Default : No
Forced : No

Text #3
ID : 8
Format : PGS
Muxing mode : zlib
Codec ID : S_HDMV/PGS
Codec ID/Info : Picture based subtitle format used on BDs/HD-DVDs
Duration : 1 h 32 min
Bit rate : 35.4 kb/s
Count of elements : 262
Stream size : 23.3 MiB (1%)
Language : English
Default : No
Forced : No
Скріншоти














Джерело: &
За доріжку від Інтера та джерело відео дякую пану igor911
За запис з Нового дякую п. Bohdan237, slavik_v_z
За доріжку від СТБ дякую пану Romario_O
За постер дякую пану Воїн
Особиста оцінка: не дивився


Срібний реліз (на рейтинг впливає 50% завантаженого)
 Трекер:    Зареєстрований   

Завантажити / скачати фільм українською



відео для новачків



 Зареєстрований:   2019-10-15 20:02
 Розмір:   2.32 GB 
 Оцінка фільму:   9/10 (Голосів: 3)
   
Arsenfpu 
Відео Гуртом - фільмокрай
Відео Гуртом - фільмокрай


З нами з: 30.04.09
Востаннє: 21.11.19
Повідомлень: 6239

2019-10-15 20:03  
Реліз оновлено!
Додано озвучення від Інтера та відео змінено на ріп з Remastered

Ваш часовий пояс: GMT + 2 Години

Нова тема   Відповісти