На старт / On Your Mark (1995) 1080р Jap | sub Ukr Eng

Нові коментарі

Нова тема   Відповісти
Автор Повідомлення
DEMO 
Свій


З нами з: 21.05.09
Востаннє: 31.03.20
Повідомлень: 116

2018-03-27 23:42  
На старт / On Your Mark (1995) Jap | sub Ukr Eng

На старт / On Your Mark (1995) 1080р Jap | sub Ukr Eng


Жанр: анімація, фентезі, фантастика, музичний, пригодницький
Країна: Японія



Кінокомпанія: Ghibli
Режисер: Хаяо Міязакі

Сюжет: В майбутньому людство не може більше жити на землі через інтенсивне випромінювання від сонця і від зруйнованої атомної станції. Одного разу, група спеціального підрозділу поліції провела рейд на осередок релігійного культу, і після запеклої перестрілки двоє поліцейських знайшли заковану у ланцюги ледь живу дівчину з крилами.
Проте урядові вчені, одягнені в костюми хімзахисту, негайно втрутилися і вирішили забрати її в науково-дослідний центр. Розуміючи, що вони просто передають її з однієї в’язниці до іншої, ці двоє поліцейських розробили сміливий план, щоб звільнити крилату дівчину раз і назавжди.


Тривалість: 00:06:46
Якість:
Відео:
кодек:
розмір кадру: 1920×1080
бітрейт: 15,6 мб/с

Аудіо №1 5.1:
мова: японська
кодек: 5.1
бітрейт: 640 кб/с

Аудіо №2 2.0:
мова: японська
кодек: 5.1
бітрейт: 640 кб/с

Аудіо №3:
мова: англійська
кодек: 5.1
бітрейт: 192 кб/с

Субтитри №1:
мова: українська | японська (ромаджі)
тип: програмні (м’які)
формат: *.srt

Субтитри №2:
мова: англійська
тип: програмні (м’які)
формат: *.srt
Info

General
Unique ID : 197741150794145699234998150935416731898 (0x94C38F73704A0DEA911FC27DE304F8FA)
Complete name : C:\Anime\Video\On Your Mark.
Format :
Format version : Version 4 / Version 2
File size : 844 MiB
Duration : 6mn 46s
Overall bit rate : 17.4 Mbps
Encoded date : UTC 2018-03-27 20:58:06
Writing application : v9.2.0 ('Photograph') 32bit
Writing library : libebml v1.3.3 + v1.4.4
DURATION : 00:05:15.607000000
NUMBER_OF_FRAMES : 50
NUMBER_OF_BYTES : 2080
_STATISTICS_WRITING_APP : v9.2.0 ('Photograph') 32bit
_STATISTICS_WRITING_DATE_UTC : 2018-03-27 20:58:06
_STATISTICS_TAGS : BPS DURATION NUMBER_OF_FRAMES NUMBER_OF_BYTES

Video
ID : 1
Format : AVC
Format/Info : Advanced Video Codec
Format profile : [email protected]
Format settings, CABAC : No
Format settings, ReFrames : 3 frames
Codec ID : V_MPEG4/ISO/AVC
Duration : 6mn 46s
Bit rate : 15.6 Mbps
Width : 1 920 pixels
Height : 1 080 pixels
Display aspect ratio : 16:9
Frame rate : 23.976 fps
Color space : YUV
Chroma subsampling : 4:2:0
Bit depth : 8 bits
Scan type : Progressive
Bits/(Pixel*Frame) : 0.314
Stream size : 756 MiB (90%)
Writing library : core 146 r2538bm 121396c
Encoding settings : cabac=0 / ref=3 / deblock=0:0:0 / analyse=0x3:0x113 / me=hex / subme=7 / psy=1 / psy_rd=1.00:0.00 / mixed_ref=1 / me_range=16 / chroma_me=1 / trellis=1 / 8x8dct=1 / cqm=0 / deadzone=21,11 / fast_pskip=1 / chroma_qp_offset=-2 / threads=8 / lookahead_threads=8 / sliced_threads=1 / slices=8 / nr=0 / decimate=1 / interlaced=0 / bluray_compat=0 / constrained_intra=0 / bframes=0 / weightp=0 / keyint=250 / keyint_min=23 / scenecut=40 / intra_refresh=0 / rc=crf / mbtree=0 / crf=18.0 / qcomp=0.60 / qpmin=0 / qpmax=69 / qpstep=4 / ip_ratio=1.40 / aq=1:1.00
Default : Yes
Forced : No

Audio #1
ID : 2
Format : AC-3
Format/Info : Audio Coding 3
Mode extension : CM (complete main)
Codec ID : A_AC3
Duration : 6mn 46s
Bit rate mode : Constant
Bit rate : 640 Kbps
Channel(s) : 6 channels
Channel positions : Front: L C R, Side: L R, LFE
Sampling rate : 48.0 KHz
Bit depth : 16 bits
Compression mode : Lossy
Stream size : 31.0 MiB (4%)
Language : Japanese
Default : Yes
Forced : No

Audio #2
ID : 3
Format : AC-3
Format/Info : Audio Coding 3
Mode extension : CM (complete main)
Codec ID : A_AC3
Duration : 6mn 46s
Bit rate mode : Constant
Bit rate : 640 Kbps
Channel(s) : 2 channels
Channel positions : Front: L R
Sampling rate : 48.0 KHz
Bit depth : 16 bits
Compression mode : Lossy
Stream size : 31.0 MiB (4%)
Language : Japanese
Default : No
Forced : No

Audio #3
ID : 4
Format : AC-3
Format/Info : Audio Coding 3
Mode extension : CM (complete main)
Codec ID : A_AC3
Duration : 6mn 46s
Bit rate mode : Constant
Bit rate : 192 Kbps
Channel(s) : 2 channels
Channel positions : Front: L R
Sampling rate : 48.0 KHz
Bit depth : 16 bits
Compression mode : Lossy
Stream size : 9.30 MiB (1%)
Language : English
Default : No
Forced : No

Text #1
ID : 5
Format : UTF-8
Codec ID : S_TEXT/UTF8
Codec ID/Info : UTF-8 Plain Text
Title : Японські/Українські
Default : Yes
Forced : No

Text #2
ID : 6
Format : UTF-8
Codec ID : S_TEXT/UTF8
Codec ID/Info : UTF-8 Plain Text
Title : Англійські
Language : English
Default : No
Forced : No
Скріншоти













Джерело: Opensubtitles.co
Особиста оцінка: 10 — без зайвих вагань рекомендую всім!


 Трекер:    Зареєстрований   

Завантажити / скачати аніме українською



відео для новачків



 Зареєстрований:   2018-03-27 23:42
 Розмір:   844 MB 
 Оцінка аніме:   9.9/10 (Голосів: 8)
   
11FrYkT 
Модератор відео


З нами з: 20.02.11
Востаннє: 01.04.20
Повідомлень: 6697

2018-03-28 18:24  
DEMO написано:
Jap | sub Ukr Eng

1080р

DEMO написано:
Актори: Chage&Aska

має бути українською, і додайте ще декількох якщо є

DEMO написано:
бітрейт: 23.976215 кб/с

це не бітрейт

DEMO написано:

удіо №1:
мова: японська
кодек: 5.1
бітрейт: 640 кб/с

Аудіо №2:
мова: японська
кодек: 5.1
бітрейт: 640 кб/с

для чого 2 однакові, якщо вони різні то розпишіть їх

DEMO написано:

Аудіо №3:
мова: англійська
кодек: 5.1
бітрейт: 192 кб/с

крім української і мови оригіналу інші заборонені, тому перемуксуйте відео з видаленням англ доріжки і заодно якщо японські однакові то і одну із них

додайте звіт Медіаінфо і вкажіть джерело сабів

DEMO 
Свій


З нами з: 21.05.09
Востаннє: 31.03.20
Повідомлень: 116

2018-03-28 19:51  
Акторів видалив. Там їх нема, лише виконувана пісня гуртом Chage&Aska.

Всі три доріжки були в офіційному BD. Дві японські відрізняються за якістю, в одній на перший план виходить пісня, на іншій — фонові звуки. Англійська доріжка є офіційним переспівом, тож має бути

11FrYkT 
Модератор відео


З нами з: 20.02.11
Востаннє: 01.04.20
Повідомлень: 6697

2018-03-28 20:01  
DEMO написано:
Англійська доріжка є офіційним переспівом, тож має бути

офіційним де? на імдб тільки японська

DEMO 
Свій


З нами з: 21.05.09
Востаннє: 31.03.20
Повідомлень: 116

2018-03-28 20:05  
11FrYkT написано:
офіційним де?

На офіційному BD, окремо виданого у 2014 році.

EvGaS 
Відео Гуртом - субтитрування
Відео Гуртом - субтитрування


З нами з: 27.02.12
Востаннє: 31.07.19
Повідомлень: 5669

2018-05-18 14:28  
Гарний кліп, вартий перегляду.
Dzuski.com 
Поважний учасник


З нами з: 08.09.19
Востаннє: 31.03.20
Повідомлень: 178

2019-09-28 01:23  
Просто непереврешно... Дякую!
Ваш часовий пояс: GMT + 2 Години

Нова тема   Відповісти