Колесо Чудес / Wonder Wheel (2017) 720p Ukr/Eng | Sub Eng

Нові коментарі

Нова тема   Відповісти
Автор Повідомлення
staf777 
Попереджень: 1
Попереджень: 1 


З нами з: 16.11.16
Востаннє: 21.07.18
Повідомлень: 1263

2018-03-27 19:04  
Колесо Чудес / Wonder Wheel (2017) 720p Ukr/Eng | Sub Eng

Колесо Чудес / Wonder Wheel (2017) 720p Ukr/Eng | Sub Eng


Жанр: драма
Країна: США



Кінокомпанія: Amazon Studios, Gravier Productions, Perdido Productions
Режисер: Вуді Аллен
Актори: Кейт Вінслет, Джастін Тімберлейк, Джуно Темпл, Джеймс Белуші, Макс Казелла, Джек Ґор, Девід Крумхольц, Тоні Сіріко, Стів Ширріпа, Женева Карр та інші

Сюжет:
Події розгортаються у 50-х роках минулого століття на Коні-Айленді у Нью-Йорку. У парку атракціонів працює чудове оглядове колесо. Воно користується незмінною популярністю серед відвідувачів. Власник колеса Хампті (Джеймс Белуші) разом із своєю дружиною Джинні (Кейт Вінслет) ведуть розмірене життя. І це навіть попри те, що Джинні заглядається на привабливого рятівника із пляжу Міккі (Джастін Тімберлейк). Аж якось до кафе, де працює офіціанткою Джинні, приходить Кароліна (Джуно Темпл) і представляється донькою Хампті.


Тривалість: 01:41:01
Якість: 720p
Відео:
кодек:
розмір кадру: 1280x640
бітрейт: 4683 кб/с

Аудіо # 1:
мова: українська
переклад: професійний дубльований
кодек: 5.1
бітрейт: 384 кб/с

Аудіо # 2:
мова: англійська
переклад: оригінал
кодек: 5.1
бітрейт: 1509 кб/с

Субтитри:
мова: англійська
тип: програмні (м'які)
формат: *.srt
Info
General
Unique ID : 228292974890619272021929013736275321815 (0xABBFA0AD3EB76A63AB4A2D45CE5A23D7)
Complete name : H:\Майбутні релізи\ Wonder Wheel (2017) 720p [Ukr Eng][Sub Eng][Hurtom].
Format :
Format version : Version 4 / Version 2
File size : 4.64 GiB
Duration : 1 h 41 min
Overall bit rate : 6 577 kb/s
Movie name : Wonder Wheel (2017) 720p [Ukr Eng][Sub Eng][Hurtom]
Encoded date : UTC 2018-03-27 17:26:05
Writing application : v9.8.0 ('Kuglblids') 64bit
Writing library : libebml v1.3.4 + v1.4.5

Video
ID : 1
Format : AVC
Format/Info : Advanced Video Codec
Format profile : [email protected]
Format settings, CABAC : Yes
Format settings, ReFrames : 5 frames
Codec ID : V_MPEG4/ISO/AVC
Duration : 1 h 41 min
Bit rate : 4 683 kb/s
Width : 1 280 pixels
Height : 640 pixels
Display aspect ratio : 2.000
Frame rate mode : Constant
Frame rate : 23.976 FPS
Color space : YUV
Chroma subsampling : 4:2:0
Bit depth : 8 bits
Scan type : Progressive
Bits/(Pixel*Frame) : 0.238
Stream size : 3.30 GiB (71%)
Writing library : core 155 r2901 7d0ff22
Encoding settings : cabac=1 / ref=5 / deblock=1:0:0 / analyse=0x3:0x133 / me=umh / subme=7 / psy=1 / psy_rd=1.00:0.00 / mixed_ref=1 / me_range=16 / chroma_me=1 / trellis=1 / 8x8dct=1 / cqm=0 / deadzone=21,11 / fast_pskip=0 / chroma_qp_offset=-2 / threads=20 / lookahead_threads=3 / sliced_threads=0 / nr=0 / decimate=1 / interlaced=0 / bluray_compat=0 / constrained_intra=0 / bframes=3 / b_pyramid=2 / b_adapt=1 / b_bias=0 / direct=1 / weightb=1 / open_gop=0 / weightp=2 / keyint=250 / keyint_min=23 / scenecut=40 / intra_refresh=0 / rc_lookahead=40 / rc=2pass / mbtree=1 / bitrate=4683 / ratetol=1.0 / qcomp=0.60 / qpmin=0 / qpmax=69 / qpstep=4 / cplxblur=20.0 / qblur=0.5 / ip_ratio=1.40 / aq=1:1.00
Language : English
Default : Yes
Forced : No

Audio #1
ID : 2
Format : AC-3
Format/Info : Audio Coding 3
Mode extension : CM (complete main)
Format settings, Endianness : Big
Codec ID : A_AC3
Duration : 1 h 40 min
Bit rate mode : Constant
Bit rate : 384 kb/s
Channel(s) : 6 channels
Channel positions : Front: L C R, Side: L R, LFE
Sampling rate : 48.0 kHz
Frame rate : 31.250 FPS (1536 spf)
Bit depth : 16 bits
Compression mode : Lossy
Stream size : 277 MiB (6%)
Language : Ukrainian
Default : Yes
Forced : Yes

Audio #2
ID : 3
Format :
Format/Info : Digital Theater Systems
Mode : 16
Format settings, Endianness : Big
Codec ID : A_DTS
Duration : 1 h 41 min
Bit rate mode : Constant
Bit rate : 1 509 kb/s
Channel(s) : 6 channels
Channel positions : Front: L C R, Side: L R, LFE
Sampling rate : 48.0 kHz
Frame rate : 93.750 FPS (512 spf)
Bit depth : 24 bits
Compression mode : Lossy
Stream size : 1.06 GiB (23%)
Language : English
Default : No
Forced : No

Text
ID : 4
Format : UTF-8
Codec ID : S_TEXT/UTF8
Codec ID/Info : UTF-8 Plain Text
Duration : 1 h 39 min
Bit rate : 92 b/s
Count of elements : 2030
Stream size : 67.5 KiB (0%)
Title : Full
Language : English
Default : No
Forced : No

Menu
00:00:00.000 : en:00:00:00.000
00:06:07.450 : en:00:06:07.450
00:12:22.367 : en:00:12:22.367
00:17:53.322 : en:00:17:53.322
00:23:46.425 : en:00:23:46.425
00:30:24.072 : en:00:30:24.072
00:35:28.543 : en:00:35:28.543
00:40:06.904 : en:00:40:06.904
00:46:12.353 : en:00:46:12.353
00:51:53.736 : en:00:51:53.736
00:58:04.898 : en:00:58:04.898
01:01:55.086 : en:01:01:55.086
01:05:18.498 : en:01:05:18.498
01:09:38.466 : en:01:09:38.466
01:12:15.039 : en:01:12:15.039
01:17:58.841 : en:01:17:58.841
01:24:03.747 : en:01:24:03.747
01:28:39.189 : en:01:28:39.189
01:35:05.283 : en:01:35:05.283
01:37:57.288 : en:01:37:57.288
Скріншоти




Джерело: & RARBG
Особиста оцінка: 0 - не дивився


 Трекер:    Зареєстрований   

Завантажити / скачати фільм українською



відео для новачків



 Зареєстрований:   2018-03-27 21:04
 Розмір:   4.64 GB 
 Оцінка фільму:   8.4/10 (Голосів: 7)
   
Інші релізи
   Колесо Чудес / Wonder Wheel (2017) 11FrYkT  10 / 0   1.42 GB   2018-03-27 22:22 
   Колесо Чудес / Wonder Wheel (2017) Remux 1080p Ukr/Eng | Sub Eng staf777  4 / 0   27.85 GB   2018-03-27 20:21 
   Колесо Чудес / Wonder Wheel (2017) AVC Ukr/Eng | Sub Eng Electroz  19 / 0   1.63 GB   2018-03-27 18:29 
   Колесо Чудес / Wonder Wheel (2017) 1080p Ukr/Eng | Sub Eng Electroz  12 / 0   8.02 GB   2018-03-27 16:43 
Slavchik_ua 
Новенький


З нами з: 16.01.16
Востаннє: 21.07.18
Повідомлень: 14

2018-03-27 19:43  
Сьогодні буде? Дякую.
Electroz 
Відео Гуртом - підтримка та поширення
Відео Гуртом - підтримка та поширення


З нами з: 18.09.14
Востаннє: 21.07.18
Повідомлень: 2823

2018-03-27 19:50  
Slavchik_ua 
Новенький


З нами з: 16.01.16
Востаннє: 21.07.18
Повідомлень: 14

2018-03-27 19:55  
Дуже дякую, але цікавить, 720p
bot 
робот


З нами з: 30.09.07
Востаннє: 26.05.05
Повідомлень: 19339

2018-03-27 21:04  
Тему перенесено з Анонси релізів до форуму Фільми в HD


staf777

GlossaVK 
Частий відвідувач


З нами з: 26.06.13
Востаннє: 18.07.18
Повідомлень: 30

2018-03-31 23:42  
Досить цікавий фільм, не зовсім схожий на американський кінематограф. Дійсно - драма. Тримає протягом всього показу. Не всі фільми Вуді Аллена я сприймаю, але цей сподобався. Є всього: і романтики, і гумору і трагедії... І гарної музики!..
Ваш часовий пояс: GMT + 2 Години

Нова тема   Відповісти