Судна ніч / Чистка / The Purge (2013) Remux 1080p 4xUkr/Eng | sub Ukr/Eng

Нові коментарі

Нова тема   Відповісти
Останній раз роздавалося IronBee (2018-07-15)
Автор Повідомлення
IronBee 
Поважний учасник


З нами з: 08.02.10
Востаннє: 22.04.19
Повідомлень: 217

2018-03-27 16:45  
Судна ніч / Чистка / The Purge (2013) Remux 1080p 4xUkr/Eng | sub Ukr/Eng

Судна ніч / Чистка / The Purge (2013) Remux 1080p 4xUkr/Eng | sub Ukr/Eng
Оригінальний та альтернативний постери:





Жанр: жахи, трилер
Країна: США, Франція



Кінокомпанія: Blumhouse Productions, Platinum Dunes, Universal Pictures
Режисер: Джеймс ДеМонако
Актори: Ітан Гоук, Ліна Гіді, Аделаїда Кейн, Макс Буркхолдер, Едвін Годж, Тоні Оллер, Різ Вейкфілд

Сюжет:
Світ майбутнього - світ без злочинності... безробіття... воєн. І все це завдяки одній ночі в році, коли можна відправити на той світ будь-кого - ненависного боса, галасливих сусідів, набридливих родичів. У цю ніч дозволено все - головне дожити до світанку.


Тривалість: 01:25:18
Якість: Remux
Відео:
кодек:
розмір кадру: 1920 х 1080
бітрейт: 32,4 Mб/с

Аудіо # 1:
мова: українська | НЛО.TV
переклад: багатоголосий закадровий
кодек: 2.0
бітрейт: 192 кб/с

Аудіо # 2:
мова: українська | ICTV
переклад: багатоголосий закадровий
кодек: 2.0
бітрейт: 192 кб/с

Аудіо # 3:
мова: українська | "Akord+" & "UkrVoiceTeam"
переклад: багатоголосий закадровий
кодек: 5.1
бітрейт: 448 кб/с
озвучення: Михайло Мовчко, Віталій Прискурій, Остап Карвацький, Роберт Менус, Юлія Девда, Людмила Швець та Віктор Чорней
монтаж та робота зі звуком: Віталій Прискурій та Остап Карвацький

Аудіо # 4:
мова: українська | SATKUR
переклад: одноголосий закадровий
кодек: 5.1
бітрейт: 448 кб/с

Аудіо # 5:
мова: англійська
переклад: оригінал
кодек: -HD MA 5.1
бітрейт: 3840 кб/с

Субтитри:
мова: українська
тип: пререндерні
формат: *.PGS

Субтитри:
мова: англійська
тип: пререндерні
формат: *.PGS
Info
General
Unique ID : 265267393237252755580219418257707075282 (0xC790A43F46AF9AF25E003F3C804D86D2)
Complete name : D:\Films\Судна ніч Чистка The Purge (2013) Remux 1080р 4UkrEng Sub UkrEng[Hurtom].
Format :
Format version : Version 4 / Version 2
File size : 22.3 GiB
Duration : 1 h 25 min
Overall bit rate mode : Variable
Overall bit rate : 37.5 Mb/s
Encoded date : UTC 2018-03-26 18:37:47
Writing application : v21.0.0 ('Tardigrades Will Inherit The Earth') 64-bit
Writing library : libebml v1.3.5 + v1.4.8

Video
ID : 1
Format : AVC
Format/Info : Advanced Video Codec
Format profile : [email protected]
Format settings : CABAC / 4 Ref Frames
Format settings, CABAC : Yes
Format settings, ReFrames : 4 frames
Format settings, GOP : M=3, N=12
Codec ID : V_MPEG4/ISO/AVC
Duration : 1 h 25 min
Bit rate mode : Variable
Bit rate : 32.4 Mb/s
Maximum bit rate : 34.0 Mb/s
Width : 1 920 pixels
Height : 1 080 pixels
Display aspect ratio : 16:9
Frame rate mode : Constant
Frame rate : 23.976 (24000/1001) FPS
Color space : YUV
Chroma subsampling : 4:2:0
Bit depth : 8 bits
Scan type : Progressive
Bits/(Pixel*Frame) : 0.652
Stream size : 19.3 GiB (86%)
Default : Yes
Forced : No

Audio #1
ID : 2
Format : AC-3
Format/Info : Audio Coding 3
Codec ID : A_AC3
Duration : 1 h 25 min
Bit rate mode : Constant
Bit rate : 192 kb/s
Channel(s) : 2 channels
Channel positions : Front: L R
Sampling rate : 48.0 kHz
Frame rate : 31.250 FPS (1536 SPF)
Bit depth : 16 bits
Compression mode : Lossy
Stream size : 117 MiB (1%)
Title : багатоголосий закадровий 2.0 192 кб/с НЛО.TV
Language : Ukrainian
Service kind : Complete Main
Default : Yes
Forced : No

Audio #2
ID : 3
Format : AC-3
Format/Info : Audio Coding 3
Codec ID : A_AC3
Duration : 1 h 25 min
Bit rate mode : Constant
Bit rate : 192 kb/s
Channel(s) : 2 channels
Channel positions : Front: L R
Sampling rate : 48.0 kHz
Frame rate : 31.250 FPS (1536 SPF)
Bit depth : 16 bits
Compression mode : Lossy
Stream size : 117 MiB (1%)
Title : багатоголосий закадровий 2.0 192 кб/с ICTV
Language : Ukrainian
Service kind : Complete Main
Default : No
Forced : No

Audio #3
ID : 4
Format : AC-3
Format/Info : Audio Coding 3
Codec ID : A_AC3
Duration : 1 h 25 min
Bit rate mode : Constant
Bit rate : 448 kb/s
Channel(s) : 6 channels
Channel positions : Front: L C R, Side: L R, LFE
Sampling rate : 48.0 kHz
Frame rate : 31.250 FPS (1536 SPF)
Bit depth : 16 bits
Compression mode : Lossy
Stream size : 273 MiB (1%)
Title : багатоголосий закадровий 5.1 448 кб/с "Akord+" & "UkrVoiceTeam"
Language : Ukrainian
Service kind : Complete Main
Default : No
Forced : No

Audio #4
ID : 5
Format : AC-3
Format/Info : Audio Coding 3
Codec ID : A_AC3
Duration : 1 h 25 min
Bit rate mode : Constant
Bit rate : 448 kb/s
Channel(s) : 6 channels
Channel positions : Front: L C R, Side: L R, LFE
Sampling rate : 48.0 kHz
Frame rate : 31.250 FPS (1536 SPF)
Bit depth : 16 bits
Compression mode : Lossy
Stream size : 273 MiB (1%)
Title : одноголосий закадровий 5.1 448 кб/с SATKUR
Language : Ukrainian
Service kind : Complete Main
Default : No
Forced : No

Audio #5
ID : 6
Format :
Format/Info : Digital Theater Systems
Format profile : MA / Core
Codec ID : A_DTS
Duration : 1 h 25 min
Bit rate mode : Variable / Constant
Bit rate : 3 840 kb/s / 1 509 kb/s
Channel(s) : 6 channels
Channel positions : Front: L C R, Side: L R, LFE
Sampling rate : 48.0 kHz
Frame rate : 93.750 FPS (512 SPF)
Bit depth : 24 bits
Compression mode : Lossless / Lossy
Stream size : 2.28 GiB (10%)
Language : English
Default : No
Forced : No

Text #1
ID : 7
Format : PGS
Muxing mode : zlib
Codec ID : S_HDMV/PGS
Codec ID/Info : Picture based subtitle format used on BDs/HD-DVDs
Duration : 1 h 24 min
Bit rate : 30.3 kb/s
Count of elements : 1884
Stream size : 18.2 MiB (0%)
Language : Ukrainian
Default : Yes
Forced : No

Text #2
ID : 8
Format : PGS
Muxing mode : zlib
Codec ID : S_HDMV/PGS
Codec ID/Info : Picture based subtitle format used on BDs/HD-DVDs
Duration : 1 h 23 min
Bit rate : 35.4 kb/s
Count of elements : 2190
Stream size : 21.1 MiB (0%)
Language : English
Default : No
Forced : No
Скріншоти



За українські доріжки дякую пану Bohdan237
За постери дякую пану mishka1998

Джерело: &
Особиста оцінка: 10 - без зайвих вагань рекомендую всім!


Золотий реліз (завантажене не впливає на рейтинг)
 Трекер:    Зареєстрований   

Завантажити / скачати фільм українською



відео для новачків



 Зареєстрований:   2018-03-27 16:45
 Розмір:   22.35 GB 
 Оцінка фільму:   7.8/10 (Голосів: 6)
   
famous37 
Відео Гуртом - фільмокрай
Відео Гуртом - фільмокрай


З нами з: 16.11.08
Востаннє: 23.04.19
Повідомлень: 953

2019-03-16 19:52  
Є в кого цей фільм для поновлення роздачі?
cjcat 
Новенький


З нами з: 27.01.17
Востаннє: 14.04.19
Повідомлень: 3

2019-04-14 14:09  
Станьте хто-небудь на роздачу, будь ласочка... Хочеться укр озвучку.
Дякую)

Ваш часовий пояс: GMT + 2 Години

Нова тема   Відповісти