Колесо Чудес / Wonder Wheel (2017) Remux 1080p Ukr/Eng | Sub Eng

Нові коментарі

Нова тема   Відповісти
Автор Повідомлення
staf777 
Відео Гуртом - підтримка та поширення
Відео Гуртом - підтримка та поширення


З нами з: 16.11.16
Востаннє: 20.04.19
Повідомлень: 2272

2018-03-27 14:33  
Колесо Чудес / Wonder Wheel (2017) Remux 1080p Ukr/Eng | Sub Eng

Колесо Чудес / Wonder Wheel (2017) Remux 1080p Ukr/Eng | Sub Eng


Жанр: драма
Країна: США



Кінокомпанія: Amazon Studios, Gravier Productions, Perdido Productions
Режисер: Вуді Аллен
Актори: Кейт Вінслет, Джастін Тімберлейк, Джуно Темпл, Джеймс Белуші, Макс Казелла, Джек Ґор, Девід Крумхольц, Тоні Сіріко, Стів Ширріпа, Женева Карр та інші

Сюжет:
Події розгортаються у 50-х роках минулого століття на Коні-Айленді у Нью-Йорку. У парку атракціонів працює чудове оглядове колесо. Воно користується незмінною популярністю серед відвідувачів. Власник колеса Хампті (Джеймс Белуші) разом із своєю дружиною Джинні (Кейт Вінслет) ведуть розмірене життя. І це навіть попри те, що Джинні заглядається на привабливого рятівника із пляжу Міккі (Джастін Тімберлейк). Аж якось до кафе, де працює офіціанткою Джинні, приходить Кароліна (Джуно Темпл) і представляється донькою Хампті.


Тривалість: 01:41:01
Якість: Remux 1080p

Відео:
кодек:
розмір кадру: 1920x1080
бітрейт: 35,8 Mб/с

Аудіо # 1:
мова: українська
переклад: професійний дубльований | студія ААА-sound
кодек: 5.1
бітрейт: 384 кб/с

Аудіо # 2:
мова: англійська
переклад: оригінал
кодек: -HD MA 5.1
бітрейт: 3327 кб/с

Субтитри:
мова: англійська
тип: програмні (м'які)
формат: *.srt
Info
General
Unique ID : 200925233590522085950831671910015837440 (0x9728CADA6E703B30B3C38D5370622500)
Complete name : H:\» HD українською » Фільми в HD\Драма\Wonder Wheel (2017) Remux 1080p [Ukr Eng][Sub Eng][Hurtom].
Format :
Format version : Version 4 / Version 2
File size : 27.9 GiB
Duration : 1 h 41 min
Overall bit rate mode : Variable
Overall bit rate : 39.5 Mb/s
Movie name : Wonder Wheel (2017) Remux 1080p [Ukr Eng][Sub Eng][Hurtom]
Encoded date : UTC 2018-03-27 15:43:21
Writing application : v9.8.0 ('Kuglblids') 64bit
Writing library : libebml v1.3.4 + v1.4.5

Video
ID : 1
Format : AVC
Format/Info : Advanced Video Codec
Format profile : [email protected]
Format settings, CABAC : Yes
Format settings, ReFrames : 4 frames
Codec ID : V_MPEG4/ISO/AVC
Duration : 1 h 41 min
Bit rate mode : Variable
Bit rate : 35.8 Mb/s
Maximum bit rate : 39.0 Mb/s
Width : 1 920 pixels
Height : 1 080 pixels
Display aspect ratio : 16:9
Frame rate mode : Constant
Frame rate : 23.976 (24000/1001) FPS
Color space : YUV
Chroma subsampling : 4:2:0
Bit depth : 8 bits
Scan type : Progressive
Bits/(Pixel*Frame) : 0.719
Stream size : 25.2 GiB (91%)
Language : English
Default : Yes
Forced : No

Audio #1
ID : 2
Format : AC-3
Format/Info : Audio Coding 3
Mode extension : CM (complete main)
Format settings, Endianness : Big
Codec ID : A_AC3
Duration : 1 h 40 min
Bit rate mode : Constant
Bit rate : 384 kb/s
Channel(s) : 6 channels
Channel positions : Front: L C R, Side: L R, LFE
Sampling rate : 48.0 kHz
Frame rate : 31.250 FPS (1536 spf)
Bit depth : 16 bits
Compression mode : Lossy
Stream size : 277 MiB (1%)
Title : [UA-DUB]
Language : Ukrainian
Default : Yes
Forced : Yes

Audio #2
ID : 3
Format :
Format/Info : Digital Theater Systems
Format profile : MA / Core
Mode : 16
Format settings, Endianness : Big
Codec ID : A_DTS
Duration : 1 h 41 min
Bit rate mode : Variable / Constant
Bit rate : 3 327 kb/s / 1 509 kb/s
Channel(s) : 6 channels
Channel positions : Front: L C R, Side: L R, LFE
Sampling rate : 48.0 kHz
Frame rate : 93.750 FPS (512 spf)
Bit depth : 24 bits
Compression mode : Lossless / Lossy
Stream size : 2.35 GiB (8%)
Title : Original
Language : English
Default : No
Forced : No

Text
ID : 4
Format : UTF-8
Codec ID : S_TEXT/UTF8
Codec ID/Info : UTF-8 Plain Text
Duration : 1 h 39 min
Bit rate : 92 b/s
Count of elements : 2030
Stream size : 67.5 KiB (0%)
Title : Full
Language : English
Default : No
Forced : No

Menu
00:00:00.000 : en:Chapter 1
00:06:07.450 : en:Chapter 2
00:12:22.366 : en:Chapter 3
00:17:53.322 : en:Chapter 4
00:23:46.425 : en:Chapter 5
00:30:24.072 : en:Chapter 6
00:35:28.543 : en:Chapter 7
00:40:06.904 : en:Chapter 8
00:46:12.352 : en:Chapter 9
00:51:53.735 : en:Chapter 10
00:58:04.898 : en:Chapter 11
01:01:55.086 : en:Chapter 12
01:05:18.497 : en:Chapter 13
01:09:38.465 : en:Chapter 14
01:12:15.039 : en:Chapter 15
01:17:58.840 : en:Chapter 16
01:24:03.747 : en:Chapter 17
01:28:39.188 : en:Chapter 18
01:35:05.282 : en:Chapter 19
01:37:57.288 : en:Chapter 20
Скріншоти



Джерело: &
Особиста оцінка: 0 - не дивився


Золотий реліз (завантажене не впливає на рейтинг)
 Трекер:    Зареєстрований   

Завантажити / скачати фільм українською



відео для новачків



 Зареєстрований:   2018-03-27 20:21
 Розмір:   27.85 GB 
 Оцінка фільму:   9.1/10 (Голосів: 9)
   
Інші релізи
   Колесо Чудес / Wonder Wheel (2017) 11FrYkT  4 / 0   1.42 GB   2018-03-27 22:22 
   Колесо Чудес / Wonder Wheel (2017) 720p Ukr/Eng | Sub Eng staf777  11 / 0   4.64 GB   2018-03-27 21:04 
   Колесо Чудес / Wonder Wheel (2017) AVC Ukr/Eng | Sub Eng Electroz  15 / 0   1.63 GB   2018-03-27 18:29 
   Колесо Чудес / Wonder Wheel (2017) 1080p Ukr/Eng | Sub Eng Electroz  9 / 0   8.02 GB   2018-03-27 16:43 
Ваш часовий пояс: GMT + 2 Години

Нова тема   Відповісти