Загублені у виноградній лозі / ვაზში დაკარგულები (2013) 720p Ukr/Geo

Нові коментарі

Нова тема   Відповісти
Автор Повідомлення
Anonymous 







2018-03-27 00:19  
Загублені у виноградній лозі / ვაზში დაკარგულები (2013) 720p Ukr/Geo

Загублені у виноградній лозі / ვაზში დაკარგულები (2013) 720p Ukr/Geo


Жанр: документальний
Країна: Грузія

Кінокомпанія: Суспільне телебачення Грузії, Студія документальних фільмів
Режисер: Георгій Молодінашвілі
Актори: Коба та Лексо Квачрелішвілі

Сюжет:
Документальний фільм-оповідь про традиції вирощування кращих сортів винограду та виготовлення вина у грузинському Кахеті.
Про гармонію людини й природи, відчуття справжнього щастя від своєї справи – в історіях героїв цієї стрічки.
Присвячується тим, хто не може жити одне без одного: виноградна лоза та людина.


Тривалість: 00:59:04
Якість:
Відео:
кодек:
розмір кадру: 1280 х 720
бітрейт: 1474 кб/с

Аудіо # 1:
мова: українська
переклад: одноголосий закадровий
кодек: MP3
бітрейт: 128 кб/с

Аудіо # 2:
мова: грузинська
переклад: оригінал
кодек: Opus 2.0
бітрейт: 122 кб/с

Джерело озвучення:
Info
General
Unique ID : 246303661502405585624426473153854359592 (0xB94C5C15F3DD6EDA87FC25908E1AC828)
Complete name : Загублені у виноградній лозі (2013).
Format :
Format version : Version 4 / Version 2
File size : 730 MiB
Duration : 59 min 4 s
Overall bit rate : 1 727 kb/s
Encoded date : UTC 2018-03-26 11:11:09
Writing application : v9.8.0 ('Kuglblids') 64bit
Writing library : libebml v1.3.4 + v1.4.5

Video
ID : 1
Format : AVC
Format/Info : Advanced Video Codec
Format profile : [email protected]
Format settings : CABAC / 3 Ref Frames
Format settings, CABAC : Yes
Format settings, ReFrames : 3 frames
Codec ID : V_MPEG4/ISO/AVC
Duration : 59 min 4 s
Bit rate : 1 474 kb/s
Width : 1 280 pixels
Height : 720 pixels
Display aspect ratio : 16:9
Frame rate mode : Constant
Frame rate : 25.000 FPS
Color space : YUV
Chroma subsampling : 4:2:0
Bit depth : 8 bits
Scan type : Progressive
Bits/(Pixel*Frame) : 0.064
Stream size : 623 MiB (85%)
Language : Georgian
Default : Yes
Forced : No

Audio #1
ID : 2
Format : MPEG Audio
Format version : Version 1
Format profile : Layer 3
Format settings : Joint stereo / MS Stereo
Codec ID : A_MPEG/L3
Codec ID/Hint : MP3
Duration : 59 min 4 s
Bit rate mode : Constant
Bit rate : 128 kb/s
Channel(s) : 2 channels
Sampling rate : 48.0 kHz
Frame rate : 41.667 FPS (1152 SPF)
Compression mode : Lossy
Stream size : 54.1 MiB (7%)
Language : Ukrainian
Default : Yes
Forced : Yes

Audio #2
ID : 3
Format : Opus
Codec ID : A_OPUS
Duration : 59 min 4 s
Bit rate : 122 kb/s
Channel(s) : 2 channels
Channel positions : Front: L R
Sampling rate : 48.0 kHz
Frame rate : 50.000 FPS (960 SPF)
Compression mode : Lossy
Stream size : 51.6 MiB (7%)
Language : Georgian
Default : No
Forced : No
Скріншоти



Джерело:


 Трекер:    Зареєстрований   

Завантажити / скачати фільм українською



відео для новачків



 Зареєстрований:   2018-03-27 00:19
 Розмір:   730 MB 
 Оцінка фільму:   9.8/10 (Голосів: 6)
   
Anonymous 







2018-03-27 00:23  
не знаю кому дякувати за запис з ТБ, який було взято з ex.ua, відео - з офіційного сайту телеканалу
Ваш часовий пояс: GMT + 2 Години

Нова тема   Відповісти