Паддінґтон / Пригоди Паддінгтона / Paddington (2014) Remux 1080p 2xUkr/Eng | Sub Eng

Нові коментарі

Нова тема   Відповісти
Автор Повідомлення
Argentum 
Свій


З нами з: 25.09.11
Востаннє: 22.07.18
Повідомлень: 132

2018-03-26 19:16  
Паддінґтон / Пригоди Паддінгтона / Paddington (2014) Remux 1080p 2xUkr/Eng | Sub Eng

Паддінґтон / Пригоди Паддінгтона / Paddington (2014) Remux 1080p 2xUkr/Eng | Sub Eng


Жанр: комедія, сімейний
Країна: Велика Британія, Франція



Кінокомпанія: Studio Canal, Anton Capital Entertainment (ACE), TF1 Films Production
Режисер: Пол Кінґ
Актори: Бен Вішоу, Г'ю Бонневіл, Ніколь Кідмен, Саллі Гокінс, Пітер Капальді, Джулі Волтерс та інші.

Сюжет:
Події фільму «Паддінґтон» починаються з того, що в Англію, на Паддінґтонський вокзал Лондона прибуває з далеких перуанських лісів ведмежа. Дружня родина Браунів вирішують взяти маленького та охайного ведмедика собі й називають його на честь залізничної станції Паддінґтоном. Такі справи обіцяють нашому герою безхмарне існування на довгі роки, та все йде шкереберть. Зла таксидермістка надумала зробити з ведмежати опудало для музею...


Тривалість: 01:35:12
Якість: Remux

Відео:
кодек:
розмір кадру: 1920 х 1080
бітрейт: 36,2 Мб/с

Аудіо # 1:
мова: українська
переклад: професійний дубльований
кодек: 2.0
бітрейт: 192 кб/с

Аудіо # 2:
мова: українська
переклад: багатоголосий закадровий
кодек: 2.0
бітрейт: 192 кб/с

Аудіо # 3:
мова: англійська
переклад: оригінал
кодек: 5.1
бітрейт: 1509 кб/с

Субтитри:
мова: англійська
тип: програмні (м'які)
формат: *.srt
Info
General
Unique ID : 109115097809352028387509304212726820242 (0x5216CDAD4C7356C8B27068FCD7DD2D92)
Complete name : Paddington/Paddington (2014) [Ukr, Eng] Remux 1080p [Hurtom].
Format :
Format version : Version 4 / Version 2
File size : 25.3 GiB
Duration : 1 h 35 min
Overall bit rate mode : Variable
Overall bit rate : 38.1 Mb/s
Movie name : Paddington (2014)
Encoded date : UTC 2018-03-27 12:29:02
Writing application : v21.0.0 ('Tardigrades Will Inherit The Earth') 64-bit
Writing library : libebml v1.3.5 + v1.4.8
Attachments : 15032622462867874_f0_0.jpg

Video
ID : 1
Format : AVC
Format/Info : Advanced Video Codec
Format profile : [email protected]
Format settings : CABAC / 4 Ref Frames
Format settings, CABAC : Yes
Format settings, ReFrames : 4 frames
Codec ID : V_MPEG4/ISO/AVC
Duration : 1 h 35 min
Bit rate mode : Variable
Bit rate : 36.2 Mb/s
Maximum bit rate : 38.0 Mb/s
Width : 1 920 pixels
Height : 1 080 pixels
Display aspect ratio : 16:9
Frame rate mode : Constant
Frame rate : 23.976 (24000/1001) FPS
Color space : YUV
Chroma subsampling : 4:2:0
Bit depth : 8 bits
Scan type : Progressive
Bits/(Pixel*Frame) : 0.728
Stream size : 24.1 GiB (95%)
Title : AVC 1920*1080 @ 36,2 Mbps
Language : English
Default : Yes
Forced : Yes

Audio #1
ID : 2
Format : AC-3
Format/Info : Audio Coding 3
Codec ID : A_AC3
Duration : 1 h 35 min
Bit rate mode : Constant
Bit rate : 192 kb/s
Channel(s) : 2 channels
Channel positions : Front: L R
Sampling rate : 48.0 kHz
Frame rate : 31.250 FPS (1536 SPF)
Bit depth : 16 bits
Compression mode : Lossy
Stream size : 131 MiB (1%)
Title : 2.0 @ 192 Kbps # MEGOGO
Language : Ukrainian
Service kind : Complete Main
Default : Yes
Forced : Yes

Audio #2
ID : 3
Format : AC-3
Format/Info : Audio Coding 3
Codec ID : A_AC3
Duration : 1 h 35 min
Bit rate mode : Constant
Bit rate : 192 kb/s
Channel(s) : 2 channels
Channel positions : Front: L R
Sampling rate : 48.0 kHz
Frame rate : 31.250 FPS (1536 SPF)
Bit depth : 16 bits
Compression mode : Lossy
Stream size : 131 MiB (1%)
Title : 2.0 @ 192 Kbps # Cine+
Language : Ukrainian
Service kind : Complete Main
Default : No
Forced : No

Audio #3
ID : 4
Format :
Format/Info : Digital Theater Systems
Codec ID : A_DTS
Duration : 1 h 35 min
Bit rate mode : Constant
Bit rate : 1 509 kb/s
Channel(s) : 6 channels
Channel positions : Front: L C R, Side: L R, LFE
Sampling rate : 48.0 kHz
Frame rate : 93.750 FPS (512 SPF)
Bit depth : 24 bits
Compression mode : Lossy
Stream size : 1.00 GiB (4%)
Title : 5.1 @ 1509 Kbps
Language : English
Default : No
Forced : No

Text
ID : 5
Format : UTF-8
Codec ID : S_TEXT/UTF8
Codec ID/Info : UTF-8 Plain Text
Duration : 1 h 29 min
Bit rate : 68 b/s
Count of elements : 1240
Stream size : 44.6 KiB (0%)
Title : Full
Language : English
Default : No
Forced : No

Menu
00:00:00.000 : en:Chapter 01
00:09:26.148 : en:Chapter 02
00:16:45.754 : en:Chapter 03
00:24:45.650 : en:Chapter 04
00:32:44.921 : en:Chapter 05
00:40:31.178 : en:Chapter 06
00:47:55.664 : en:Chapter 07
00:57:52.468 : en:Chapter 08
01:03:24.467 : en:Chapter 09
01:10:31.727 : en:Chapter 10
01:23:49.983 : en:Chapter 11
01:27:39.504 : en:Chapter 12
Скріншоти







Джерело: &
Особиста оцінка: 8 - мені сподобалося


Золотий реліз (завантажене не впливає на рейтинг)
 Трекер:    Зареєстрований   

Завантажити / скачати фільм українською



відео для новачків



 Зареєстрований:   2018-03-27 17:41
 Розмір:   25.32 GB 
 Оцінка фільму:   9/10 (Голосів: 4)
   
Electroz 
Відео Гуртом - підтримка та поширення
Відео Гуртом - підтримка та поширення


З нами з: 18.09.14
Востаннє: 23.07.18
Повідомлень: 2828

2018-03-26 19:19  
Argentum написано:

мова: українська
переклад: професійний дубльований
кодек: 5.1
бітрейт: 448 кб/с

Дутий звук?

Argentum 
Свій


З нами з: 25.09.11
Востаннє: 22.07.18
Повідомлень: 132

2018-03-26 19:23  
Electroz написано:
Дутий звук?

Зміксовано з англійською

Argentum 
Свій


З нами з: 25.09.11
Востаннє: 22.07.18
Повідомлень: 132

2018-03-27 17:47  
Через виявлені дефекти у доріжці #1 ( 5.1) замінив її на оригінальну з дубляжем від MEGOGO ( 2.0). Прохання перезавантажити торрент!

Я не Бендер 2.0 
Забанено
Забанено


З нами з: 13.03.18
Востаннє: 01.05.18
Повідомлень: 110

2018-03-27 19:02  
А в доріжці №2 голосу зеленського нема?
Argentum 
Свій


З нами з: 25.09.11
Востаннє: 22.07.18
Повідомлень: 132

2018-03-27 19:06  
Я не Бендер 2.0 написано:
А в доріжці №2 голосу зеленського нема?

Немає

Petrovcheg 
Новенький


З нами з: 10.01.17
Востаннє: 22.07.18
Повідомлень: 4

2018-05-20 09:38  
Допоможіть, будь ласка, скачати.
Дякую.

Ваш часовий пояс: GMT + 2 Години

Нова тема   Відповісти