Гора між нами / The Mountain Between Us (2017) mini 1080p H.265 Ukr/Eng | Sub Ukr/Eng

Нові коментарі

Нова тема   Відповісти
Останній раз роздавалося TatiankaPol (2018-10-21)
Автор Повідомлення
igor302 
Свій


З нами з: 27.10.11
Востаннє: 15.10.18
Повідомлень: 108

2018-03-26 17:14  
Гора між нами / The Mountain Between Us (2017) mini 1080p H.265 Ukr/Eng | Sub Ukr/Eng

Гора між нами / The Mountain Between Us (2017) mini 1080p H.265 Ukr/Eng | Sub Ukr/Eng
Альтернативні постери:




Жанр: драма, мелодрама
Країна: США



Кінокомпанія: Chernin Entertainment, Twentieth Century Fox
Режисер: Хані Абу-Ассад / Hany Abu-Assad
Актори: Ідріс Ельба / Idris Elba, Кейт Вінслет / Kate Winslet, Бо Бріджес / Beau Bridges, Дермот Малруні / Dermot Mulroney та інші

Сюжет:
Над лісами штату Колорадо сталася авіакатастрофа. Випадкові попутники, чоловік і жінка, змушені тепер лише спільними зусиллями виживати в дикому середовищі. Але доктор Бен Трейс та письменниця Ешлі не мають наміру так просто здаватися...


Тривалість: 01:51:49
Якість:
Відео:
кодек: H.265 (HEVC)
розмір кадру: 1920 х 804
бітрейт: 1 308 кб/с
бітова глибина: 10 біт
Увага! Перед завантаженням переконайтесь, що ваш пристрій відтворення (та/або ПЗ) підтримують H.265 (HEVC) та 10 біт

Аудіо # 1:
мова: українська
переклад: професійний дубльований
кодек: 2.0
бітрейт: 192 кб/с

Аудіо # 2:
мова: англійська
переклад: оригінал
кодек: 5.1
бітрейт: 384 кб/с

Субтитри # 1:
мова: українська
тип: програмні (м'які)
формат: *.srt

Субтитри # 2-3:
мова: англійська (повні, SHD) рограмні (м'які)
тип: програмні (м'які)
формат: *.srt
Info
General
Unique ID : 544409467271516066327283774774891610 (0x68D97585C951F427F28B2AB97CD45A)
Complete name : D:\Video\The Mountain Between Us (2017) 1080p H.265 [Hurtom].
Format :
Format version : Version 4 / Version 2
File size : 1.47 GiB
Duration : 1 h 51 min
Overall bit rate : 1 886 kb/s
Movie name : The Mountain Between Us (2017)
Encoded date : UTC 2018-03-25 23:23:23
Writing application : v20.0.0 ('I Am The Sun') 64-bit
Writing library : libebml v1.3.5 + v1.4.8

Video
ID : 1
Format : HEVC
Format/Info : High Efficiency Video Coding
Format profile : Main [email protected]@High
Codec ID : V_MPEGH/ISO/HEVC
Duration : 1 h 51 min
Bit rate : 1 308 kb/s
Width : 1 920 pixels
Height : 804 pixels
Display aspect ratio : 2.40:1
Frame rate mode : Constant
Frame rate : 23.976 (24000/1001) FPS
Color space : YUV
Chroma subsampling : 4:2:0
Bit depth : 10 bits
Bits/(Pixel*Frame) : 0.035
Stream size : 1.02 GiB (69%)
Writing library : x265 2.6+22-ff02513b92c0:[Windows][GCC 7.2.0][64 bit] 10bit
Encoding settings : cpuid=1173503 / frame-threads=3 / numa-pools=8 / wpp / no-pmode / no-pme / no-psnr / no-ssim / log-level=2 / input-csp=1 / input-res=1920x804 / interlace=0 / total-frames=0 / level-idc=41 / high-tier=1 / uhd-bd=0 / ref=6 / no-allow-non-conformance / no-repeat-headers / annexb / no-aud / no-hrd / info / hash=0 / no-temporal-layers / open-gop / min-keyint=23 / keyint=250 / gop-lookahead=0 / bframes=10 / b-adapt=2 / b-pyramid / bframe-bias=0 / rc-lookahead=60 / lookahead-slices=3 / scenecut=40 / radl=0 / no-intra-refresh / ctu=64 / min-cu-size=8 / no-rect / no-amp / max-tu-size=32 / tu-inter-depth=3 / tu-intra-depth=3 / limit-tu=0 / rdoq-level=1 / dynamic-rd=2.00 / no-ssim-rd / signhide / no-tskip / nr-intra=0 / nr-inter=0 / no-constrained-intra / no-strong-intra-smoothing / max-merge=2 / limit-refs=3 / no-limit-modes / me=2 / subme=5 / merange=57 / temporal-mvp / weightp / weightb / no-analyze-src-pics / deblock=-2:-2 / no-sao / no-sao-non-deblock / rd=4 / no-early-skip / no-rskip / no-fast-intra / no-tskip-fast / no-cu-lossless / no-b-intra / no-splitrd-skip / rdpenalty=0 / psy-rd=1.75 / psy-rdoq=2.50 / no-rd-refine / no-lossless / cbqpoffs=0 / crqpoffs=0 / rc=crf / crf=22.0 / qcomp=0.80 / qpstep=4 / stats-write=0 / stats-read=0 / vbv-maxrate=50000 / vbv-bufsize=50000 / vbv-init=0.9 / crf-max=0.0 / crf-min=0.0 / ipratio=1.40 / pbratio=1.10 / aq-mode=1 / aq-strength=0.20 / cutree / zone-count=0 / no-strict-cbr / qg-size=32 / no-rc-grain / qpmax=69 / qpmin=0 / no-const-vbv / sar=1 / overscan=0 / videoformat=5 / range=0 / colorprim=2 / transfer=2 / colormatrix=2 / chromaloc=0 / display-window=0 / max-cll=0,0 / min-luma=0 / max-luma=1023 / log2-max-poc-lsb=8 / vui-timing-info / vui-hrd-info / slices=1 / no-opt-qp-pps / no-opt-ref-list-length-pps / no-multi-pass-opt-rps / scenecut-bias=0.05 / no-opt-cu-delta-qp / aq-motion / no-hdr / no-hdr-opt / no-dhdr10-opt / analysis-save=(null) / analysis-load=(null) / analysis-reuse-level=5 / scale-factor=0 / refine-intra=0 / refine-inter=0 / refine-mv=0 / no-limit-sao / ctu-info=0 / no-lowpass-dct / refine-mv-type=0 / copy-pic=1
Default : Yes
Forced : Yes

Audio #1
ID : 2
Format : AC-3
Format/Info : Audio Coding 3
Codec ID : A_AC3
Duration : 1 h 51 min
Bit rate mode : Constant
Bit rate : 192 kb/s
Channel(s) : 2 channels
Channel positions : Front: L R
Sampling rate : 48.0 kHz
Frame rate : 31.250 FPS (1536 SPF)
Bit depth : 16 bits
Compression mode : Lossy
Stream size : 154 MiB (10%)
Title : Postmodern
Language : Ukrainian
Service kind : Complete Main
Default : Yes
Forced : No

Audio #2
ID : 3
Format : AC-3
Format/Info : Audio Coding 3
Codec ID : A_AC3
Duration : 1 h 51 min
Bit rate mode : Constant
Bit rate : 384 kb/s
Channel(s) : 6 channels
Channel positions : Front: L C R, Side: L R, LFE
Sampling rate : 48.0 kHz
Frame rate : 31.250 FPS (1536 SPF)
Bit depth : 16 bits
Compression mode : Lossy
Stream size : 307 MiB (20%)
Language : English
Service kind : Complete Main
Default : No
Forced : No

Text #1
ID : 4
Format : UTF-8
Codec ID : S_TEXT/UTF8
Codec ID/Info : UTF-8 Plain Text
Duration : 1 h 46 min
Bit rate : 48 b/s
Count of elements : 980
Stream size : 37.4 KiB (0%)
Language : Ukrainian
Default : Yes
Forced : No

Text #2
ID : 5
Format : UTF-8
Codec ID : S_TEXT/UTF8
Codec ID/Info : UTF-8 Plain Text
Duration : 1 h 47 min
Bit rate : 34 b/s
Count of elements : 1067
Stream size : 27.1 KiB (0%)
Language : English
Default : No
Forced : No

Text #3
ID : 6
Format : UTF-8
Codec ID : S_TEXT/UTF8
Codec ID/Info : UTF-8 Plain Text
Duration : 1 h 48 min
Bit rate : 41 b/s
Count of elements : 1334
Stream size : 32.6 KiB (0%)
Language : English
Default : No
Forced : No

Menu
00:00:00.000 : en:Chapter 01
00:02:58.595 : en:Chapter 02
00:08:53.115 : en:Chapter 03
00:13:15.377 : en:Chapter 04
00:16:21.480 : en:Chapter 05
00:21:36.253 : en:Chapter 06
00:26:51.985 : en:Chapter 07
00:31:53.369 : en:Chapter 08
00:38:55.750 : en:Chapter 09
00:43:45.039 : en:Chapter 10
00:51:04.227 : en:Chapter 11
00:57:28.486 : en:Chapter 12
01:01:22.470 : en:Chapter 13
01:04:39.292 : en:Chapter 14
01:07:40.890 : en:Chapter 15
01:11:06.053 : en:Chapter 16
01:14:56.533 : en:Chapter 17
01:19:14.916 : en:Chapter 18
01:23:48.398 : en:Chapter 19
01:27:52.475 : en:Chapter 20
01:32:13.194 : en:Chapter 21
01:35:41.652 : en:Chapter 22
01:41:48.268 : en:Chapter 23
01:45:22.816 : en:Chapter 24
Скріншоти



Джерело:
Особиста оцінка: 0 - не дивився


 Трекер:    Зареєстрований   

Завантажити / скачати фільм українською



відео для новачків



 Зареєстрований:   2018-03-26 17:14
 Розмір:   1.47 GB 
 Оцінка фільму:   7.1/10 (Голосів: 8)
   
Silverheart 
Новенький


З нами з: 08.09.14
Востаннє: 07.08.18
Повідомлень: 11

2018-03-28 16:15  
Хороший фільм. Сподобався і мені і дружині. Чудовий переклад - правильний і доречний. Раджу. Це не фільм для відпочинку, але для наповнення душевним теплом. Дякую за реліз! Happy
Ваш часовий пояс: GMT + 2 Години

Нова тема   Відповісти