Тачки 3 / Cars 3 (2017) 1080p-mini H.265 Ukr/Eng | Sub Eng

Нові коментарі

Нова тема   Відповісти
Автор Повідомлення
Anonymous 







2018-03-26 15:47  
Тачки 3 / Cars 3 (2017) 1080p-mini H.265 Ukr/Eng | Sub Eng

Тачки 3 / Cars 3 (2017) 1080p-mini H.265 Ukr/Eng | Sub Eng

Жанр: комедія, мультфільм, пригоди, сімейний, спорт
Країна: США



Кінокомпанія: Walt Disney Pictures, Pixar Animation Studios
Режисер: Брайан Фі
Актори: Овен Вілсон, Армі Гаммер, Натан Філліон, Керрі Вашінгтон, Бонні Хант, Крістела Алонзо, Марго Мартіндейл, Тоні Шелуб

Сюжет:
Улюбленець публіки Блискавка МакКвін тепер вважається одним з найдосвідченіших ветеранів автогонок. Сиди собі та попивай бензиновий коктейль і насолоджуйся славою. Але йому як і раніше хочеться перемагати в гонках. Щоб не відставати від суперників на трасі, Блискавці потрібно використовувати все нові й нові технології. Допоможе йому в цьому майстер своєї справи – Круз Рамірес, талановитий механік. Та й без підтримки старих добрих Метра, Саллі та Рамона ніяк не обійтися. Але знайдуться й ті, хто захоче повставляти палиці в колеса. Порядок і безпека світу машин знову опиниться під загрозою, і все через Джексона Сторма.


Тривалість: 01:42:25
Якість:
Відео:
кодек: H.265 (HEVC)
розмір кадру: 1920 х 804
бітрейт: 4 719 кб/с
бітова глибина: 10 біт
Увага! Перед завантаженням переконайтесь, що ваш пристрій відтворення (та/або ПЗ) підтримують H.265 (HEVC) та 10 біт

Аудіо # 1:
мова: українська
переклад: професійний дубльований
кодек: 5.1
бітрейт: 640 кб/с

Аудіо # 2:
мова: англійська
переклад: оригінал
кодек: 5.1
бітрейт: 448 кб/с

Субтитри:
мова: англійська (Full, SDH)
тип: програмні (м'які)
формат: *.srt
Info
General
Unique ID : 85441994514444479183981434348647943808 (0x404787922F529D5C981FD382DB630E80)
Complete name : D:\Video\Cars 3 (2017) 1080p H.265 [UKR_ENG] [Hurtom].
Format :
Format version : Version 4 / Version 2
File size : 4.16 GiB
Duration : 1 h 42 min
Overall bit rate : 5 810 kb/s
Movie name : Cars 3 (2017)
Encoded date : UTC 2018-03-26 00:26:43
Writing application : v20.0.0 ('I Am The Sun') 64-bit
Writing library : libebml v1.3.5 + v1.4.8

Video
ID : 1
Format : HEVC
Format/Info : High Efficiency Video Coding
Format profile : Main [email protected]@High
Codec ID : V_MPEGH/ISO/HEVC
Duration : 1 h 42 min
Bit rate : 4 719 kb/s
Width : 1 920 pixels
Height : 804 pixels
Display aspect ratio : 2.40:1
Frame rate mode : Constant
Frame rate : 23.976 (24000/1001) FPS
Color space : YUV
Chroma subsampling : 4:2:0
Bit depth : 10 bits
Bits/(Pixel*Frame) : 0.128
Stream size : 3.38 GiB (81%)
Writing library : x265 2.5+20-0967d0add97e:[Windows][GCC 7.2.0][64 bit] 10bit
Encoding settings : cpuid=1173503 / frame-threads=3 / numa-pools=8 / wpp / pmode / no-pme / no-psnr / ssim / log-level=2 / input-csp=1 / input-res=1920x804 / interlace=0 / total-frames=0 / level-idc=41 / high-tier=1 / uhd-bd=0 / ref=6 / no-allow-non-conformance / repeat-headers / annexb / no-aud / no-hrd / info / hash=0 / no-temporal-layers / open-gop / min-keyint=23 / keyint=250 / bframes=10 / b-adapt=2 / b-pyramid / bframe-bias=0 / rc-lookahead=60 / lookahead-slices=1 / scenecut=40 / no-intra-refresh / ctu=64 / min-cu-size=8 / no-rect / no-amp / max-tu-size=32 / tu-inter-depth=3 / tu-intra-depth=3 / limit-tu=0 / rdoq-level=1 / dynamic-rd=2.00 / no-ssim-rd / signhide / no-tskip / nr-intra=0 / nr-inter=0 / no-constrained-intra / no-strong-intra-smoothing / max-merge=2 / limit-refs=0 / no-limit-modes / me=1 / subme=7 / merange=64 / temporal-mvp / weightp / weightb / no-analyze-src-pics / deblock=-3:-3 / no-sao / no-sao-non-deblock / rd=4 / no-early-skip / no-rskip / no-fast-intra / no-tskip-fast / no-cu-lossless / no-b-intra / no-splitrd-skip / rdpenalty=0 / psy-rd=1.75 / psy-rdoq=2.50 / no-rd-refine / analysis-reuse-mode=0 / no-lossless / cbqpoffs=0 / crqpoffs=0 / rc=crf / crf=22.0 / qcomp=0.80 / qpstep=6 / stats-write=0 / stats-read=0 / vbv-maxrate=50000 / vbv-bufsize=50000 / vbv-init=0.9 / crf-max=0.0 / crf-min=0.0 / ipratio=1.50 / pbratio=1.00 / aq-mode=1 / aq-strength=0.20 / no-cutree / zone-count=0 / no-strict-cbr / qg-size=32 / no-rc-grain / qpmax=69 / qpmin=0 / no-const-vbv / sar=1 / overscan=0 / videoformat=5 / range=0 / colorprim=2 / transfer=2 / colormatrix=2 / chromaloc=0 / display-window=0 / max-cll=0,0 / min-luma=0 / max-luma=1023 / log2-max-poc-lsb=8 / vui-timing-info / vui-hrd-info / slices=1 / opt-qp-pps / opt-ref-list-length-pps / no-multi-pass-opt-rps / scenecut-bias=0.05 / no-opt-cu-delta-qp / aq-motion / no-hdr / no-hdr-opt / no-dhdr10-opt / analysis-reuse-level=5 / scale-factor=0 / refine-intra=0 / refine-inter=0 / refine-mv=0 / no-limit-sao / ctu-info=0
Default : Yes
Forced : Yes

Audio #1
ID : 2
Format : AC-3
Format/Info : Audio Coding 3
Codec ID : A_AC3
Duration : 1 h 42 min
Bit rate mode : Constant
Bit rate : 640 kb/s
Channel(s) : 6 channels
Channel positions : Front: L C R, Side: L R, LFE
Sampling rate : 48.0 kHz
Frame rate : 31.250 FPS (1536 SPF)
Bit depth : 16 bits
Compression mode : Lossy
Stream size : 469 MiB (11%)
Title : Dub [License]
Language : Ukrainian
Service kind : Complete Main
Default : Yes
Forced : Yes

Audio #2
ID : 3
Format : AC-3
Format/Info : Audio Coding 3
Codec ID : A_AC3
Duration : 1 h 42 min
Bit rate mode : Constant
Bit rate : 448 kb/s
Channel(s) : 6 channels
Channel positions : Front: L C R, Side: L R, LFE
Sampling rate : 48.0 kHz
Frame rate : 31.250 FPS (1536 SPF)
Bit depth : 16 bits
Compression mode : Lossy
Stream size : 328 MiB (8%)
Language : English
Service kind : Complete Main
Default : No
Forced : No

Text #1
ID : 4
Format : UTF-8
Codec ID : S_TEXT/UTF8
Codec ID/Info : UTF-8 Plain Text
Duration : 1 h 41 min
Bit rate : 86 b/s
Count of elements : 2108
Stream size : 64.2 KiB (0%)
Title : Full
Language : English
Default : No
Forced : No

Text #2
ID : 5
Format : UTF-8
Codec ID : S_TEXT/UTF8
Codec ID/Info : UTF-8 Plain Text
Duration : 1 h 41 min
Bit rate : 87 b/s
Count of elements : 2109
Stream size : 64.6 KiB (0%)
Title : SDH
Language : English
Default : No
Forced : No

Menu
00:00:00.000 : en:Champ McQueen
00:04:57.255 : en:Storm Front
00:10:54.988 : en:Crash
00:13:59.422 : en:Wake-up Call
00:18:15.344 : en:Phone Call
00:21:07.641 : en:Modern Training
00:34:08.880 : en:Deal
00:37:52.103 : en:Beach
00:42:44.812 : en:Crazy Eight
00:49:44.398 : en:Cruz's Dream
00:53:57.734 : en:Facetime
00:58:17.702 : en:Olive Branch
00:59:27.522 : en:Smokey
01:02:15.940 : en:Hud's Win
01:06:35.533 : en:It's Over
01:08:33.109 : en:Old School Training
01:15:48.126 : en:Florida Arrival
01:20:57.852 : en:Pit Stop
01:29:42.418 : en:Victory Lane
01:32:17.031 : en:Epilogue
01:34:00.092 : en:End Credits
Скріншоти



Джерело:
Особиста оцінка: 0 - не дивився


 Трекер:    Зареєстрований   

Завантажити / скачати мультфільм українською



відео для новачків



 Зареєстрований:   2018-03-26 15:47
 Розмір:   4.16 GB 
 Оцінка мультфільму:   9.1/10 (Голосів: 15)
   
Інші релізи
   Тачки 3 / Cars 3 (2017) Remux 1080p Ukr/Eng | Sub Eng 11FrYkT  11 / 0   22.12 GB   2017-11-05 14:12 
   Тачки 3 / Cars 3 (2017) igor911  61 / 0   1.46 GB   2017-10-28 21:50 
   Тачки 3 / Cars 3 (2017) 1080p Ukr/Eng | Sub Eng Electroz  21 / 0   10.44 GB   2017-10-28 19:35 
   Тачки 3 / Cars 3 (2017) 720p Ukr/Eng | Sub Eng 11FrYkT  21 / 0   5.37 GB   2017-10-28 18:56 
jaral 
Забанено
Забанено


З нами з: 18.10.07
Востаннє: 21.01.20
Повідомлень: 982

2018-03-27 02:33  
igor302 написано:
H.265
Це ще не стандарт для цифрового телебачення в Україні?
Lyolic 
VIP


З нами з: 04.08.09
Востаннє: 24.02.20
Повідомлень: 444

2018-03-27 10:24  
jaral
Судячи з ресиверів у продажу, там HEVC ще й рядом не валявся Happy

tokar121 
Новенький


З нами з: 23.03.12
Востаннє: 18.02.20
Повідомлень: 15

2018-03-28 23:10  
а не можна зробити . мій старенький самсунг не читає. а малому обіцяв
Lyolic 
VIP


З нами з: 04.08.09
Востаннє: 24.02.20
Повідомлень: 444

2018-03-28 23:13  
tokar121
Внизу першого посту є спойлер "Інші релізи", вибирайте Happy

Electroz 
Відео Гуртом - підтримка та поширення
Відео Гуртом - підтримка та поширення


З нами з: 18.09.14
Востаннє: 24.02.20
Повідомлень: 3775

2018-03-28 23:13  
tokar121 написано:
а не можна зробити

Шукайте під спойлером інші релізи.
https://toloka.to/t84592

Ваш часовий пояс: GMT + 2 Години

Нова тема   Відповісти