Лабіринт Фавна / El laberinto del fauno / Pan's Labyrinth (2006) 1080p-mini H.265 2xUkr/Esp | Sub Ukr/Esp/Eng

Нові коментарі

Нова тема   Відповісти
Автор Повідомлення
igor302 
Свій


З нами з: 27.10.11
Востаннє: 15.11.18
Повідомлень: 108

2018-03-26 15:37  
Лабіринт Фавна / El laberinto del fauno / Pan's Labyrinth (2006) 1080p-mini H.265 2xUkr/Esp | Sub Ukr/Esp/Eng

Лабіринт Фавна / El laberinto del fauno / Pan's Labyrinth (2006) 1080p-mini H.265 2xUkr/Esp | Sub Ukr/Esp/Eng

Жанр: драма, фентезі, воєнний
Країна: Іспанія, Мексика, США



Кінокомпанія: Estudios Picasso, Tequila Gang, Esperanto Filmoj
Режисер: Ґільєрмо Дель Торо / Guillermo Del Toro
Актори: Івана Бакеро / Ivana Baquero, Серхі Лопес / Sergi López, Марібель Верду / Maribel Verdú, Даґ Джонс / Doug Jones, Аріадна Ґіл / Ariadna Gil, Алекс Анґуло / Álex Angulo, Маноло Соло / Manolo Solo, Цезар Ві / César Vea, Рожер Казамайор / Roger Casamajor, Іван Массаґе / Ivan Massagué

Сюжет:
Іспанія, 1944 рік. Група повстанців бореться з фашистами в гірських лісах північної Наварри. Офелія — 10-літня самотня і мрійлива дівчинка — переїжджає зі своєю вагітною матір'ю Кармен до військового табору вітчима капітана Відаля. Відаль — пихатий та жорстокий офіцер армії Франко, який має очистити район від повстанців будь-якою ціною. Офелія, захоплена магічними казками, знаходить близько дому старовинний закинутий лабіринт.

Фея проводить її до центру лабіринту, де вона зустрічає Фавна, господаря підземелля. Фавн стверджує, що знає її істинну долю і її таємне призначення. Виявляється Офелія — зникла принцеса магічного королівства, котру багато віків розшукує її батько. Фавн пропонує їй можливість вернутися в магічне королівство. Але для початку вона повинна пройти три випробування до настання повного місяця. Ніхто не повинен дізнатися про це.

Час спливає — як для Офелії, так і для загону повстанців. Всім доведеться протистояти труднощам і жорстокості на шляху до свободи.


Тривалість: 01:58:51
Якість:
Відео:
кодек: H.265 (HEVC)
розмір кадру: 1920 х 1080
бітрейт: 6 064 кб/с
бітова глибина: 10 біт
Увага! Перед завантаженням переконайтесь, що ваш пристрій відтворення (та/або ПЗ) підтримують H.265 (HEVC) та 10 біт

Аудіо # 1:
мова: українська
переклад: багатоголосий закадровий
кодек: 5.1
бітрейт: 448 кб/с
Фільм перекладено і озвучено на студії Омікрон на замовлення Hurtom.com

Аудіо # 2:
мова: українська
переклад: багатоголосий закадровий
кодек: 2.0
бітрейт: 192 кб/с

Аудіо # 3:
мова: іспанська
переклад: оригінал
кодек: 5.1
бітрейт: 448 кб/с

Субтитри:
мова: українська
тип: програмні (м'які)
формат: *.srt

Субтитри:
мова: англійська
тип: програмні (м'які)
формат: *.srt

Субтитри:
мова: іспанська
тип: програмні (м'які)
формат: *.srt
Info
General
Unique ID : 77650952516240156269156455797062033471 (0x3A6B078B177D991E9BD90EEF0C82E03F)
Complete name : D:\Video\El Laberinto del fauno (2006) 1080p H.265 [2UKR_ESP] [Hurtom].
Format :
Format version : Version 4 / Version 2
File size : 5.94 GiB
Duration : 1 h 58 min
Overall bit rate : 7 153 kb/s
Movie name : El Laberinto del fauno (2006)
Encoded date : UTC 2018-03-26 14:39:07
Writing application : v20.0.0 ('I Am The Sun') 64-bit
Writing library : libebml v1.3.5 + v1.4.8

Video
ID : 1
Format : HEVC
Format/Info : High Efficiency Video Coding
Format profile : Main [email protected]@High
Codec ID : V_MPEGH/ISO/HEVC
Duration : 1 h 58 min
Bit rate : 6 064 kb/s
Width : 1 920 pixels
Height : 1 080 pixels
Display aspect ratio : 16:9
Frame rate mode : Constant
Frame rate : 23.976 (24000/1001) FPS
Color space : YUV
Chroma subsampling : 4:2:0
Bit depth : 10 bits
Bits/(Pixel*Frame) : 0.122
Stream size : 5.03 GiB (85%)
Writing library : x265 2.6+22-ff02513b92c0:[Windows][GCC 7.2.0][64 bit] 10bit
Encoding settings : cpuid=1310975 / frame-threads=2 / numa-pools=4 / wpp / pmode / no-pme / no-psnr / no-ssim / log-level=2 / input-csp=1 / input-res=1920x1080 / interlace=0 / total-frames=0 / level-idc=41 / high-tier=1 / uhd-bd=0 / ref=5 / no-allow-non-conformance / no-repeat-headers / annexb / no-aud / no-hrd / info / hash=0 / no-temporal-layers / open-gop / min-keyint=23 / keyint=250 / gop-lookahead=0 / bframes=8 / b-adapt=2 / b-pyramid / bframe-bias=0 / rc-lookahead=60 / lookahead-slices=3 / scenecut=40 / radl=0 / no-intra-refresh / ctu=64 / min-cu-size=8 / no-rect / no-amp / max-tu-size=32 / tu-inter-depth=3 / tu-intra-depth=3 / limit-tu=0 / rdoq-level=1 / dynamic-rd=2.00 / no-ssim-rd / signhide / no-tskip / nr-intra=0 / nr-inter=0 / no-constrained-intra / no-strong-intra-smoothing / max-merge=2 / limit-refs=0 / no-limit-modes / me=2 / subme=7 / merange=57 / temporal-mvp / weightp / weightb / no-analyze-src-pics / deblock=-3:-3 / no-sao / no-sao-non-deblock / rd=4 / no-early-skip / no-rskip / no-fast-intra / no-tskip-fast / no-cu-lossless / no-b-intra / no-splitrd-skip / rdpenalty=0 / psy-rd=1.00 / psy-rdoq=2.50 / no-rd-refine / no-lossless / cbqpoffs=0 / crqpoffs=0 / rc=crf / crf=22.0 / qcomp=0.80 / qpstep=4 / stats-write=0 / stats-read=0 / vbv-maxrate=50000 / vbv-bufsize=50000 / vbv-init=0.9 / crf-max=0.0 / crf-min=0.0 / ipratio=1.50 / pbratio=1.00 / aq-mode=1 / aq-strength=0.20 / cutree / zone-count=0 / no-strict-cbr / qg-size=32 / no-rc-grain / qpmax=69 / qpmin=0 / no-const-vbv / sar=1 / overscan=0 / videoformat=5 / range=0 / colorprim=2 / transfer=2 / colormatrix=2 / chromaloc=0 / display-window=0 / max-cll=0,0 / min-luma=0 / max-luma=1023 / log2-max-poc-lsb=8 / vui-timing-info / vui-hrd-info / slices=1 / no-opt-qp-pps / no-opt-ref-list-length-pps / no-multi-pass-opt-rps / scenecut-bias=0.05 / no-opt-cu-delta-qp / aq-motion / no-hdr / no-hdr-opt / no-dhdr10-opt / analysis-save=(null) / analysis-load=(null) / analysis-reuse-level=5 / scale-factor=0 / refine-intra=0 / refine-inter=0 / refine-mv=0 / no-limit-sao / ctu-info=0 / no-lowpass-dct / refine-mv-type=0 / copy-pic=1
Default : Yes
Forced : Yes

Audio #1
ID : 2
Format : AC-3
Format/Info : Audio Coding 3
Codec ID : A_AC3
Duration : 1 h 58 min
Bit rate mode : Constant
Bit rate : 448 kb/s
Channel(s) : 6 channels
Channel positions : Front: L C R, Side: L R, LFE
Sampling rate : 48.0 kHz
Frame rate : 31.250 FPS (1536 SPF)
Bit depth : 16 bits
Compression mode : Lossy
Stream size : 381 MiB (6%)
Title : Omikron
Language : Ukrainian
Service kind : Complete Main
Default : Yes
Forced : No

Audio #2
ID : 3
Format : AC-3
Format/Info : Audio Coding 3
Codec ID : A_AC3
Duration : 1 h 58 min
Bit rate mode : Constant
Bit rate : 192 kb/s
Channel(s) : 2 channels
Channel positions : Front: L R
Sampling rate : 48.0 kHz
Frame rate : 31.250 FPS (1536 SPF)
Bit depth : 16 bits
Compression mode : Lossy
Stream size : 163 MiB (3%)
Title : 1+1
Language : Ukrainian
Service kind : Complete Main
Default : No
Forced : No

Audio #3
ID : 4
Format : AC-3
Format/Info : Audio Coding 3
Codec ID : A_AC3
Duration : 1 h 58 min
Bit rate mode : Constant
Bit rate : 448 kb/s
Channel(s) : 6 channels
Channel positions : Front: L C R, Side: L R, LFE
Sampling rate : 48.0 kHz
Frame rate : 31.250 FPS (1536 SPF)
Bit depth : 16 bits
Compression mode : Lossy
Stream size : 381 MiB (6%)
Language : Spanish
Service kind : Complete Main
Default : No
Forced : No

Text #1
ID : 5
Format : UTF-8
Codec ID : S_TEXT/UTF8
Codec ID/Info : UTF-8 Plain Text
Duration : 1 h 53 min
Bit rate : 50 b/s
Count of elements : 705
Stream size : 42.1 KiB (0%)
Language : Ukrainian
Default : Yes
Forced : No

Text #2
ID : 6
Format : UTF-8
Codec ID : S_TEXT/UTF8
Codec ID/Info : UTF-8 Plain Text
Duration : 1 h 51 min
Bit rate : 31 b/s
Count of elements : 826
Stream size : 25.4 KiB (0%)
Language : English
Default : No
Forced : No

Text #3
ID : 7
Format : UTF-8
Codec ID : S_TEXT/UTF8
Codec ID/Info : UTF-8 Plain Text
Duration : 1 h 50 min
Bit rate : 33 b/s
Count of elements : 946
Stream size : 27.4 KiB (0%)
Language : Spanish
Default : No
Forced : No

Menu
00:00:00.000 : en:Chapter 01
00:01:02.020 : en:Chapter 02
00:11:27.019 : en:Chapter 03
00:30:57.564 : en:Chapter 04
00:43:36.322 : en:Chapter 05
00:56:26.633 : en:Chapter 06
01:11:46.677 : en:Chapter 07
01:24:57.509 : en:Chapter 08
01:40:23.100 : en:Chapter 09
Скріншоти



Джерело:
Особиста оцінка: 0 - не дивився


Авторський реліз (завантажувати можна без реєстрації)
 Трекер:    Зареєстрований   

Завантажити / скачати фільм українською



відео для новачків



 Зареєстрований:   2018-03-26 16:48
 Розмір:   5.94 GB 
 Оцінка фільму:   9.6/10 (Голосів: 7)
   
Electroz 
Відео Гуртом - підтримка та поширення
Відео Гуртом - підтримка та поширення


З нами з: 18.09.14
Востаннє: 10.12.18
Повідомлень: 3170

2018-03-26 16:25  
Необхідно також додати доріжку від 1+1.
Тanya 
Новенький


З нами з: 16.05.15
Востаннє: 08.12.18
Повідомлень: 6

2018-04-04 18:48  
Мій найулюбленіший фільм. Обожнюю його
Ваш часовий пояс: GMT + 2 Години

Нова тема   Відповісти