Я, Робот / I, Robot [Open Matte] (2004) Remux 1080p Ukr/Eng | sub Ukr/Eng

Нові коментарі

Нова тема   Відповісти
Автор Повідомлення
staf777 
Відео Гуртом - підтримка та поширення
Відео Гуртом - підтримка та поширення


З нами з: 16.11.16
Востаннє: 22.05.19
Повідомлень: 2379

2018-03-26 10:36  
Я, Робот / I, Robot [Open Matte] (2004) Remux 1080p Ukr/Eng | sub Ukr/Eng

Я, Робот / I, Robot [Open Matte] (2004) Remux 1080p Ukr/Eng | sub Ukr/Eng


Жанр: фантастика, бойовик, трилер, детектив
Країна: США, Німеччина



Кінокомпанія: Twentieth Century Fox Film Corporation, Mediastream Vierte Film GmbH & Co. Vermarktungs KG, Davis Entertainment
Режисер: Алекс Пройас / Alex Proyas
Актори: Вілл Сміт / Will Smith, Бріджет Мойнехен / Bridget Moynahan, Алан Тудик / Alan Tudyk, Чі МакБрайд / Chi McBride, Джеймс Кромуелл / James Cromwell, Шиа ЛаБеф / Shia LaBeouf, Брюс Грінвуд / Bruce Greenwood, Адріан Рікард / Adrian Ricard, Джеррі Вассерман / Jerry Wasserman, Фіона Хоган / Fiona Hogan, Пітер Шинкода / Peter Shinkoda та інші

Сюжет:
Дія фільму відбувається в далекому майбутньому (2035 р.), де роботи є звичайними помічниками людини. Головний герой - поліцейський, що «не переварює» роботів, розслідує справу про вбивство, в якому замішаний робот.

Мова йде про можливе порушення «Закону про роботів» (робот ніколи не підніме руку на людину), що, в принципі, неможливо. Ситуація близька до катастрофічної: Якщо машини можуть порушувати цей закон, то вже ніщо не зупинить їх від захоплення контролю над людьми, тим більше, що людство вже давно стало повністю залежне від роботів ...


Тривалість: 01:54:44
Якість: Remux 1080p
Відео:
кодек:
розмір кадру: 1920x1080
бітрейт: 23.0 Mб/с

Аудіо # 1:
мова: українська
переклад: багатоголосий закадровий
кодек: 5.1
бітрейт: 448 кб/с

Аудіо # 2:
мова: англійська
переклад: оригінал
кодек: -HD MA 5.1
бітрейт: 4178 кб/с

Субтитри:
мова: українська
тип: програмні (м'які)
формат: *.srt

Субтитри:
мова: англійська
тип: програмні (м'які)
формат: *.srt
Info
General
Unique ID : 185068131880969270784692665866384515696 (0x8B3AD360B0E0ABD595D805BB99E32270)
Complete name : H:\» HD українською » Фільми в HD\Фантастика\I, Robot (2004) Remux 1080p [Open Matte] [Ukr][Eng][Sub Ukr,Eng][Hurtom].
Format :
Format version : Version 4 / Version 2
File size : 22.1 GiB
Duration : 1 h 54 min
Overall bit rate mode : Variable
Overall bit rate : 27.6 Mb/s
Movie name : I, Robot (2004) Remux 1080p [Open Matte] [Ukr][Eng][Sub Ukr,Eng][Hurtom]
Encoded date : UTC 2018-03-26 12:49:07
Writing application : v9.8.0 ('Kuglblids') 64bit
Writing library : libebml v1.3.4 + v1.4.5

Video
ID : 1
Format : AVC
Format/Info : Advanced Video Codec
Format profile : [email protected]
Format settings, CABAC : Yes
Format settings, ReFrames : 2 frames
Codec ID : V_MPEG4/ISO/AVC
Duration : 1 h 54 min
Bit rate mode : Variable
Bit rate : 23.0 Mb/s
Width : 1 920 pixels
Height : 1 080 pixels
Display aspect ratio : 16:9
Frame rate mode : Constant
Frame rate : 23.976 (24000/1001) FPS
Color space : YUV
Chroma subsampling : 4:2:0
Bit depth : 8 bits
Scan type : Progressive
Bits/(Pixel*Frame) : 0.462
Stream size : 18.4 GiB (83%)
Title : I, Robot (2004)
Language : English
Default : Yes
Forced : No

Audio #1
ID : 2
Format : AC-3
Format/Info : Audio Coding 3
Mode extension : CM (complete main)
Format settings, Endianness : Big
Codec ID : A_AC3
Duration : 1 h 54 min
Bit rate mode : Constant
Bit rate : 448 kb/s
Channel(s) : 6 channels
Channel positions : Front: L C R, Side: L R, LFE
Sampling rate : 48.0 kHz
Frame rate : 31.250 FPS (1536 spf)
Bit depth : 16 bits
Compression mode : Lossy
Stream size : 368 MiB (2%)
Title : [UA-MVO]
Language : Ukrainian
Default : Yes
Forced : Yes

Audio #2
ID : 3
Format :
Format/Info : Digital Theater Systems
Format profile : MA / Core
Mode : 16
Format settings, Endianness : Big
Codec ID : A_DTS
Duration : 1 h 54 min
Bit rate mode : Variable / Constant
Bit rate : 4 178 kb/s / 1 509 kb/s
Channel(s) : 6 channels
Channel positions : Front: L C R, Side: L R, LFE
Sampling rate : 48.0 kHz
Frame rate : 93.750 FPS (512 spf)
Bit depth : 24 bits
Compression mode : Lossless / Lossy
Stream size : 3.35 GiB (15%)
Title : Оригинал
Language : English
Default : No
Forced : No

Text #1
ID : 4
Format : UTF-8
Codec ID : S_TEXT/UTF8
Codec ID/Info : UTF-8 Plain Text
Duration : 1 h 46 min
Bit rate : 97 b/s
Count of elements : 1143
Stream size : 76.6 KiB (0%)
Language : Ukrainian
Default : No
Forced : No

Text #2
ID : 5
Format : UTF-8
Codec ID : S_TEXT/UTF8
Codec ID/Info : UTF-8 Plain Text
Duration : 1 h 41 min
Bit rate : 59 b/s
Count of elements : 1135
Stream size : 44.0 KiB (0%)
Title : Full
Language : English
Default : No
Forced : No

Menu
00:00:00.000 : en:00:00:00.000
00:01:46.940 : en:00:01:46.940
00:03:30.252 : en:00:03:30.252
00:06:18.545 : en:00:06:18.545
00:07:57.519 : en:00:07:57.519
00:10:19.702 : en:00:10:19.702
00:12:11.230 : en:00:12:11.230
00:15:35.309 : en:00:15:35.309
00:17:47.984 : en:00:17:47.984
00:22:51.870 : en:00:22:51.870
00:26:14.031 : en:00:26:14.031
00:26:59.243 : en:00:26:59.243
00:33:23.168 : en:00:33:23.168
00:36:03.578 : en:00:36:03.578
00:41:23.523 : en:00:41:23.523
00:46:07.890 : en:00:46:07.890
00:49:06.026 : en:00:49:06.026
00:52:14.506 : en:00:52:14.506
00:55:22.277 : en:00:55:22.277
00:58:31.717 : en:00:58:31.717
01:00:06.770 : en:01:00:06.770
01:01:08.665 : en:01:01:08.665
01:07:56.114 : en:01:07:56.114
01:08:18.094 : en:01:08:18.094
01:10:24.303 : en:01:10:24.303
01:13:17.226 : en:01:13:17.226
01:16:53.818 : en:01:16:53.818
01:18:39.465 : en:01:18:39.465
01:20:14.226 : en:01:20:14.226
01:21:18.290 : en:01:21:18.290
01:21:57.454 : en:01:21:57.454
01:27:29.536 : en:01:27:29.536
01:28:57.666 : en:01:28:57.666
01:32:59.657 : en:01:32:59.657
01:34:45.138 : en:01:34:45.138
01:38:09.467 : en:01:38:09.467
01:41:10.898 : en:01:41:10.898
01:44:15.416 : en:01:44:15.416
01:45:02.755 : en:01:45:02.755
Скріншоти



Джерела та подяки: ріп відео, оригінальні звук та субтитри - RUTOR; українська доріжка - HQCLUB; українські субтитри - LIONN та igor911(Гуртом)
Джерело: &
Особиста оцінка: 8 - мені сподобалося


Золотий реліз (завантажене не впливає на рейтинг)
 Трекер:    Зареєстрований   

Завантажити / скачати фільм українською



відео для новачків



 Зареєстрований:   2018-03-26 17:48
 Розмір:   22.14 GB 
 Оцінка фільму:   8.8/10 (Голосів: 16)
   
Інші релізи
   Я, Робот / I, Robot (2004) 1080p H.265 Ukr/Eng | Sub Ukr/Eng -Star-Lord-  8 / 0   3.35 GB   2018-09-10 11:40 
   Я, Робот / I, Robot [Open Matte] (2004) AVC Ukr/Eng | sub Ukr/Eng staf777  1 / 0   3.08 GB   2018-05-31 15:45 
   Я, Робот / I, Robot [Open Matte] (2004) patriot2305  7 / 0   1.45 GB   2014-05-02 22:48 
   Я, Робот / I, Robot [Open Matte] (2004) 1080p Ukr/Eng | sub Ukr/Eng igor911  7 / 0   15.58 GB   2013-08-24 20:42 
   Я, Робот / I, Robot [Open Matte] (2004) 720p Ukr/Eng | sub Ukr/Eng igor911  8 / 0   7.99 GB   2013-08-24 19:34 
   Я, Робот / I, Robot (2004) Ukr/Eng xslim  2 / 0   2.18 GB   2011-04-25 08:45 
bot 
робот


З нами з: 30.09.07
Востаннє: 26.05.05
Повідомлень: 21370

2018-03-26 17:46  
Тему перенесено з Анонси релізів до форуму Фільми в HD


staf777

Ваш часовий пояс: GMT + 2 Години

Нова тема   Відповісти