Формула 1. Сезон 2018. Етап 1. Гран-Прі Австралії. Гонка (25.03.2018) 720p 50fps Ukr/Eng

Нові коментарі

Нова тема   Відповісти
Останній раз роздавалося KO4EBHUK (2020-10-17)
Автор Повідомлення
sergiyko.5 
VIP


З нами з: 25.02.16
Востаннє: 24.10.20
Повідомлень: 3614

2018-03-26 01:14  
Формула 1. Сезон 2018. Етап 1. Гран-Прі Австралії. Гонка (25.03.2018) 720p 50fps Ukr/Eng


Формула 1. Сезон 2018. Етап 1. Гран-Прі Австралії. Гонка (25.03.2018) 720p 50fps Ukr/Eng

Жанр: Перегони Формули 1
Країна: Австралія
Телеканал: Перший автомобільний, Sky Sport F1 HD
Коментатор: Максим Подзігун

Опис:
Гонка першого сезону Гран-Прі Австралії 2018 року.


Тривалість: 03:05:07
Якість:

Відео: кодек: розмір кадру: 1280 х 720 бітрейт: 5307 кб/с
Аудіо # 1: мова: українська кодек: 2.0 бітрейт: 192 кб/с
Аудіо # 2: мова: англійська кодек: 5.1 бітрейт: 384 кб/с
Аудіо # 3: інтершум кодек: 5.1 бітрейт: 448 кб/с
Про файл:
General
Unique ID : 69437535460549041064985765879012803420 (0x343D2ED1468D8953641C096B7FE2435C)
Complete name : D:\Torrents\SPORT\Formula 1\F1.2018.Race\F1.2018.01.Australia.Race.AVC.720p.50fps.
Format :
Format version : Version 4 / Version 2
File size : 8.19 GiB
Duration : 3 h 5 min
Overall bit rate : 6 335 kb/s
Encoded date : UTC 2018-03-25 22:05:04
Writing application : v21.0.0 ('Tardigrades Will Inherit The Earth') 64-bit
Writing library : libebml v1.3.5 + v1.4.8

Video
ID : 1
Format : AVC
Format/Info : Advanced Video Codec
Format profile : [email protected]
Format settings, CABAC : Yes
Format settings, ReFrames : 4 frames
Codec ID : V_MPEG4/ISO/AVC
Duration : 3 h 5 min
Bit rate : 5 307 kb/s
Width : 1 280 pixels
Height : 720 pixels
Display aspect ratio : 16:9
Frame rate mode : Constant
Frame rate : 50.000 FPS
Color space : YUV
Chroma subsampling : 4:2:0
Bit depth : 8 bits
Scan type : Progressive
Bits/(Pixel*Frame) : 0.115
Stream size : 6.86 GiB (84%)
Writing library : core 148 r2705 3f5ed56
Encoding settings : cabac=1 / ref=3 / deblock=1:0:0 / analyse=0x3:0x113 / me=umh / subme=9 / psy=1 / psy_rd=1.00:0.00 / mixed_ref=1 / me_range=32 / chroma_me=1 / trellis=1 / 8x8dct=1 / cqm=0 / deadzone=21,11 / fast_pskip=1 / chroma_qp_offset=-2 / threads=18 / lookahead_threads=1 / sliced_threads=0 / nr=0 / decimate=1 / interlaced=0 / bluray_compat=0 / constrained_intra=0 / bframes=12 / b_pyramid=2 / b_adapt=1 / b_bias=0 / direct=1 / weightb=1 / open_gop=0 / weightp=2 / keyint=100 / keyint_min=10 / scenecut=40 / intra_refresh=0 / rc_lookahead=40 / rc=crf / mbtree=1 / crf=21.0 / qcomp=0.60 / qpmin=0 / qpmax=69 / qpstep=4 / vbv_maxrate=20000 / vbv_bufsize=25000 / crf_max=0.0 / nal_hrd=none / filler=0 / ip_ratio=1.40 / aq=1:1.00
Language : English
Default : Yes
Forced : No

Audio #1
ID : 2
Format : AC-3
Format/Info : Audio Coding 3
Mode extension : CM (complete main)
Format settings, Endianness : Big
Codec ID : A_AC3
Duration : 3 h 5 min
Bit rate mode : Constant
Bit rate : 192 kb/s
Channel(s) : 2 channels
Channel positions : Front: L R
Sampling rate : 48.0 kHz
Frame rate : 31.250 FPS (1536 spf)
Bit depth : 16 bits
Compression mode : Lossy
Delay relative to video : 16 ms
Stream size : 254 MiB (3%)
Title : 1 Auto
Language : Ukrainian
Default : Yes
Forced : Yes

Audio #2
ID : 3
Format : AC-3
Format/Info : Audio Coding 3
Mode extension : CM (complete main)
Format settings, Endianness : Big
Codec ID : A_AC3
Duration : 3 h 5 min
Bit rate mode : Constant
Bit rate : 384 kb/s
Channel(s) : 6 channels
Channel positions : Front: L C R, Side: L R, LFE
Sampling rate : 48.0 kHz
Frame rate : 31.250 FPS (1536 spf)
Bit depth : 16 bits
Compression mode : Lossy
Delay relative to video : 16 ms
Stream size : 508 MiB (6%)
Title : SkySports F1
Language : English
Default : No
Forced : No

Audio #3
ID : 4
Format : AC-3
Format/Info : Audio Coding 3
Mode extension : CM (complete main)
Format settings, Endianness : Big
Codec ID : A_AC3
Duration : 3 h 5 min
Bit rate mode : Constant
Bit rate : 448 kb/s
Channel(s) : 6 channels
Channel positions : Front: L C R, Side: L R, LFE
Sampling rate : 48.0 kHz
Frame rate : 31.250 FPS (1536 spf)
Bit depth : 16 bits
Compression mode : Lossy
Delay relative to video : 16 ms
Stream size : 593 MiB (7%)
Title : Natural Sounds
Default : No
Forced : No
Скріншоти:


Автор запису/зведення: Shewa1


 Трекер:    Зареєстрований   

Завантажити / скачати торрент



відео для новачків



 Зареєстрований:   2018-03-26 01:14
 Розмір:   8.19 GB 
 Оцінка:   10/10 (Голосів: 3)
   
ProgBassing 
Попереджень: 1
Попереджень: 1 


З нами з: 08.03.08
Востаннє: 24.10.20
Повідомлень: 873

2018-03-26 09:48  
нова офіційна заставка F1 і близько не відображає суті спорту, та ще й чомусь дуже багато російських слів у ній... чому не фінських, не німецьких чи французьких?!?!?!
...музика ніби з іншої якоїсь передачі :І

"шосейно-кільцеві ПЕРЕГОНИ" - це про Формулу 1 загалом
"ГОНКА" - це про подію недільного дня, про власне сам заїзд

але цьому релізеру, звісно ж, видніше ))

iamandriy 
Новенький


З нами з: 25.03.18
Востаннє: 07.10.20
Повідомлень: 5

2018-03-26 12:43  
дякую
iamandriy 
Новенький


З нами з: 25.03.18
Востаннє: 07.10.20
Повідомлень: 5

2018-03-27 08:56  
вчора буцли проблеми із звуко,сьогодні додивлявся-усе нормально-)))) полтергейст)
Ваш часовий пояс: GMT + 2 Години

Нова тема   Відповісти