Легенда Г'ю Ґласса / The Revenant (2015) UHD Remux 4K 2160p HDR H.265 Ukr/Eng | Sub Ukr/Eng

Нові коментарі

Нова тема   Відповісти
Автор Повідомлення
Devil_my_cry 
Частий відвідувач


З нами з: 26.06.10
Востаннє: 10.10.18
Повідомлень: 43

2018-03-25 19:08  
Легенда Г'ю Ґласса / The Revenant (2015) UHD Remux 4K 2160p HDR H.265 Ukr/Eng | Sub Ukr/Eng

Легенда Г'ю Ґласса / The Revenant (2015) UHD Remux 4K 2160p HDR H.265 Ukr/Eng | Sub Ukr/Eng


Жанр: пригодницький, драма, трилер
Країна: США



Кінокомпанія: Anonymous Content, Appian Way, Monarchy Enterprises S.a.r.l.
Режисер: Алехандро Ґонсалес Іньярріту
Актори: Леонардо ДіКапріо, Том Гарді, Домнал Ґлісон, Вілл Поултер, Пол Андерсон, Лукас Гаас, Бред Картер, Крістофер Йонер, Брендан Флетчер

Сюжет:
Мисливець Г'ю Ґласс серйозно поранений на невідомих просторах американського Дикого Заходу. Товариш Г'ю по загону підкорювачів нових земель Джон Фіцжеральд зрадливо залишає його помирати на самоті. Тепер у Ґласса залишилося тільки одна зброя - його сила волі. Він готовий кинути виклик первісній природі, суворій зимі і ворожим племенам індіанців, тільки щоб вижити і помститися Фіцжеральду.


Тривалість: 02:36:21
Якість: 4K UltraHD Remux 2160p
Відео:
кодек: H.265 (HEVC)
розмір кадру: 3840x2160
бітрейт: 36,9 Мб/с
бітова глибина: 10 біт
кольоровий простір: BT.2020 (HDR)

Аудіо # 1:
мова: українська
переклад: професійний дубльований
кодек: 5.1
бітрейт: 448 Кб/с

Аудіо # 2:
мова: англійська
переклад: оригінал
кодек: -HD 7.1
бітрейт: 4606 Кб/с

Субтитри (Forced, Full):
мова: українська
тип: програмні (м'які)
формат: *.srt

Субтитри (Full, SHD, SHD-Colored):
мова: англійська
тип: програмні (м'які)
формат: *.srt
Info
Video
ID : 1
Format : HEVC
Format/Info : High Efficiency Video Coding
Commercial name : HDR10
Format profile : Main [email protected]@High
Codec ID : V_MPEGH/ISO/HEVC
Duration : 2 h 36 min
Bit rate : 36.9 Mb/s
Width : 3 840 pixels
Height : 2 160 pixels
Display aspect ratio : 16:9
Frame rate mode : Constant
Frame rate : 23.976 (24000/1001) FPS
Color space : YUV
Chroma subsampling : 4:2:0 (Type 2)
Bit depth : 10 bits
Bits/(Pixel*Frame) : 0.186
Stream size : 40.3 GiB (88%)
Language : English
Default : Yes
Forced : No
Color range : Limited
Color primaries : BT.2020
Transfer characteristics : PQ
Matrix coefficients : BT.2020 non-constant
Mastering display color pri : BT.709
Mastering display luminance : min: 0.0000 cd/m2, max: 1000 cd/m2

Audio #1
ID : 2
Format : AC-3
Format/Info : Audio Coding 3
Codec ID : A_AC3
Duration : 2 h 36 min
Bit rate mode : Constant
Bit rate : 448 kb/s
Channel(s) : 6 channels
Channel positions : Front: L C R, Side: L R, LFE
Sampling rate : 48.0 kHz
Frame rate : 31.250 FPS (1536 SPF)
Bit depth : 16 bits
Compression mode : Lossy
Stream size : 501 MiB (1%)
Title : 5.1 @ 448 kbps
Language : Ukrainian
Service kind : Complete Main
Default : Yes
Forced : Yes

Audio #2
ID : 3
Format :
Format/Info : Digital Theater Systems
Format profile : MA / Core
Codec ID : A_DTS
Duration : 2 h 36 min
Bit rate mode : Variable / Constant
Bit rate : 4 606 kb/s / 1 509 kb/s
Channel(s) : 8 channels / 6 channels
Channel positions : Front: L C R, Side: L R, Back: L R, LFE / Front: L C R, Side: L R, LFE
Sampling rate : 48.0 kHz
Frame rate : 93.750 FPS (512 SPF)
Bit depth : 24 bits
Compression mode : Lossless / Lossy
Stream size : 5.03 GiB (11%)
Title : Original
Language : English
Default : No
Forced : No

Text #1
ID : 4
Format : UTF-8
Codec ID : S_TEXT/UTF8
Codec ID/Info : UTF-8 Plain Text
Duration : 2 h 35 min
Bit rate : 5 b/s
Count of elements : 146
Stream size : 5.76 KiB (0%)
Title : Forced
Language : Ukrainian
Default : Yes
Forced : Yes

Text #2
ID : 5
Format : UTF-8
Codec ID : S_TEXT/UTF8
Codec ID/Info : UTF-8 Plain Text
Duration : 2 h 35 min
Bit rate : 38 b/s
Count of elements : 846
Stream size : 44.5 KiB (0%)
Title : Full
Language : Ukrainian
Default : No
Forced : No

Text #3
ID : 6
Format : UTF-8
Codec ID : S_TEXT/UTF8
Codec ID/Info : UTF-8 Plain Text
Duration : 2 h 20 min
Bit rate : 25 b/s
Count of elements : 936
Stream size : 26.5 KiB (0%)
Title : Full
Language : English
Default : No
Forced : No

Text #4
ID : 7
Format : UTF-8
Codec ID : S_TEXT/UTF8
Codec ID/Info : UTF-8 Plain Text
Duration : 2 h 25 min
Bit rate : 30 b/s
Count of elements : 1231
Stream size : 32.4 KiB (0%)
Title : SDH
Language : English
Default : No
Forced : No

Text #5
ID : 8
Format : UTF-8
Codec ID : S_TEXT/UTF8
Codec ID/Info : UTF-8 Plain Text
Duration : 2 h 25 min
Bit rate : 42 b/s
Count of elements : 1275
Stream size : 45.3 KiB (0%)
Title : SDH Colored
Language : English
Default : No
Forced : No
Скріншоти





Джерело: &
Особиста оцінка: 10 - без зайвих вагань рекомендую всім!


Золотий реліз (завантажене не впливає на рейтинг)
 Трекер:    Зареєстрований   

Завантажити / скачати фільм українською



відео для новачків



 Зареєстрований:   2018-03-25 19:08
 Розмір:   45.83 GB 
 Оцінка фільму:   9.4/10 (Голосів: 16)
   
Інші релізи
VooDoo.LDMU 
Новенький


З нами з: 10.06.12
Востаннє: 25.05.19
Повідомлень: 2

2018-03-26 01:31  
Такого нудного і затягнутого фільму важко знайти. Сюжет легко вклався б в півтори години, і то б вийшло нудно. Гори стоять, річка тече, сніг йде... Ледве змусив себе додивитись.
[email protected] 
Відео Гуртом - підтримка та поширення
Відео Гуртом - підтримка та поширення


З нами з: 16.06.12
Востаннє: 26.05.19
Повідомлень: 1279

2018-07-08 16:00  
VooDoo.LDMU, він працював на статуетку) Він уже отримав свій оскар нарешті?)
service 
Новенький


З нами з: 02.07.18
Востаннє: 24.05.19
Повідомлень: 8

2018-07-09 17:34  
Фільм чудовий, актори попрацювали на всі 100%. Дякую за реліз.
Ваш часовий пояс: GMT + 2 Години

Нова тема   Відповісти