Формула 1. Сезон 2018. Етап 1. Гран-Прі Австралії. Гонка (25.03.2018) 720p

Нові коментарі

Нова тема   Відповісти
Останній раз роздавалося Sigizmund IX (2020-10-22)
Автор Повідомлення
sergiyko.5 
VIP


З нами з: 25.02.16
Востаннє: 23.10.20
Повідомлень: 3611

2018-03-25 13:30  
Формула 1. Сезон 2018. Етап 1. Гран-Прі Австралії. Гонка (25.03.2018) 720p


Формула 1. Сезон 2018. Етап 1. Гран-Прі Австралії. Гонка (25.03.2018) 720p

Жанр: Перегони Формули 1
Країна: Австралія
Телеканал: Перший автомобільний
Коментатор: Максим Подзігун

Опис:
Гонка першого сезону Гран-Прі Австралії 2018 року.


Тривалість: 01:47:11
Якість:

Відео:кодек: розмір кадру: 1280 х 720 бітрейт: 4000 кб/с
Аудіо # 1: мова: українська кодек: MP2 2.0 бітрейт: 192 кб/с
Аудіо # 2: інтершум кодек: MP2 2.0 бітрейт: 192 кб/с

Дод. інформація: відео з Матч-ТБ має вирізану рекламу, тому час кінцевого відеофайла коротший за час прямої трансляції.
Про файл:
General
Unique ID : 5629800753191180219087130549455395029 (0x43C429B7E782D51A6CA66F22B6B98D5)
Complete name : D:\Torrents\SPORT\Formula 1\F1.2018.Race\F1.2018.01.Australia.Race.720p..Ukr.Int.
Format :
Format version : Version 4 / Version 2
File size : 3.29 GiB
Duration : 1 h 47 min
Overall bit rate : 4 399 kb/s
Movie name : F1 2018 01 Australia Race 720p by sergiyko
Encoded date : UTC 2018-03-25 10:25:29
Writing application : v21.0.0 ('Tardigrades Will Inherit The Earth') 64-bit
Writing library : libebml v1.3.5 + v1.4.8

Video
ID : 1
Format : AVC
Format/Info : Advanced Video Codec
Format profile : [email protected]
Format settings, CABAC : Yes
Format settings, ReFrames : 4 frames
Codec ID : V_MPEG4/ISO/AVC
Duration : 1 h 47 min
Bit rate : 4 011 kb/s
Width : 1 280 pixels
Height : 720 pixels
Display aspect ratio : 16:9
Frame rate mode : Constant
Frame rate : 50.000 FPS
Color space : YUV
Chroma subsampling : 4:2:0
Bit depth : 8 bits
Scan type : Progressive
Bits/(Pixel*Frame) : 0.087
Stream size : 3.00 GiB (91%)
Title : F1 2018 01 Australia Race 720p
Language : English
Default : Yes
Forced : No
Color range : Limited
Color primaries : BT.709
Transfer characteristics : BT.709
Matrix coefficients : BT.709

Audio #1
ID : 2
Format : MPEG Audio
Format version : Version 1
Format profile : Layer 2
Codec ID : A_MPEG/L2
Codec ID/Hint : MP2
Duration : 1 h 47 min
Bit rate mode : Constant
Bit rate : 192 kb/s
Channel(s) : 2 channels
Sampling rate : 48.0 kHz
Frame rate : 41.667 FPS (1152 spf)
Compression mode : Lossy
Delay relative to video : 204 ms
Stream size : 147 MiB (4%)
Title : 1 Авто | Максим Подзігун
Language : Ukrainian
Default : Yes
Forced : Yes

Audio #2
ID : 3
Format : MPEG Audio
Format version : Version 1
Format profile : Layer 2
Codec ID : A_MPEG/L2
Codec ID/Hint : MP2
Duration : 1 h 47 min
Bit rate mode : Constant
Bit rate : 192 kb/s
Channel(s) : 2 channels
Sampling rate : 48.0 kHz
Frame rate : 41.667 FPS (1152 spf)
Compression mode : Lossy
Delay relative to video : 4 ms
Stream size : 147 MiB (4%)
Title : Інтершум
Default : No
Forced : No
Скріншоти:


Автор запису/зведення: sergiyko


 Трекер:    Зареєстрований   

Завантажити / скачати торрент



відео для новачків



 Зареєстрований:   2018-03-25 13:30
 Розмір:   3.29 GB 
 Оцінка:   9.9/10 (Голосів: 12)
   
Ваш часовий пояс: GMT + 2 Години

Нова тема   Відповісти