Формула 1. Сезон 2018. Етап 1. Гран-Прі Австралії. Гонка (25.03.2018) HDTV 1080i

Нові коментарі

Нова тема   Відповісти
Останній раз роздавалося VicCob (2020-10-20)
Автор Повідомлення
sergiyko.5 
VIP


З нами з: 25.02.16
Востаннє: 20.10.20
Повідомлень: 3578

2018-03-25 12:26  
Формула 1. Сезон 2018. Етап 1. Гран-Прі Австралії. Гонка (25.03.2018) HDTV 1080i


Формула 1. Сезон 2018. Етап 1. Гран-Прі Австралії. Гонка (25.03.2018) HDTV 1080i

Жанр: Перегони Формули 1
Країна: Австралія
Телеканал: Перший автомобільний
Коментатор: Максим Подзігун

Опис:
Гонка першого сезону Гран-Прі Австралії 2018 року.


Тривалість: 01:47:04
Якість: HDTV

Відео:кодек: розмір кадру: 1920 х 1080 бітрейт: 10000 кб/с
Аудіо # 1: мова: українська кодек: 2.0 бітрейт: 192 кб/с
Аудіо # 2: інтершум кодек: MP2 2.0 бітрейт: 192 кб/с

Дод. інформація: відео з Матч-ТБ має вирізану рекламу, тому час кінцевого відеофайла коротший за час прямої трансляції.
Про файл:
General
Unique ID : 38316329962569508919104358859441255002 (0x1CD374EBD3062CA223AA953700A5325A)
Complete name : D:\Torrents\SPORT\Formula 1\F1.2018.Race\F1.2018.01.Australia.Race.1080i.HDTV.Ukr.Int.
Format :
Format version : Version 4 / Version 2
File size : 8.52 GiB
Duration : 1 h 47 min
Overall bit rate : 11.4 Mb/s
Movie name : by sergiyko
Encoded date : UTC 2018-03-25 09:18:33
Writing application : v21.0.0 ('Tardigrades Will Inherit The Earth') 64-bit
Writing library : libebml v1.3.5 + v1.4.8

Video
ID : 1
Format : AVC
Format/Info : Advanced Video Codec
Format profile : [email protected]
Format settings, CABAC : Yes
Format settings, ReFrames : 4 frames
Format settings, GOP : M=4, N=28
Codec ID : V_MPEG4/ISO/AVC
Duration : 1 h 47 min
Bit rate : 11.0 Mb/s
Width : 1 920 pixels
Height : 1 080 pixels
Display aspect ratio : 16:9
Frame rate mode : Variable
Frame rate : 50.000 FPS
Original frame rate : 25.000 FPS
Standard : Component
Color space : YUV
Chroma subsampling : 4:2:0
Bit depth : 8 bits
Scan type : Interlaced
Scan type, store method : Separated fields
Scan order : Top Field First
Bits/(Pixel*Frame) : 0.106
Stream size : 8.23 GiB (97%)
Language : English
Default : Yes
Forced : No
Color range : Limited
Color primaries : BT.709
Transfer characteristics : BT.709
Matrix coefficients : BT.709

Audio #1
ID : 2
Format : AC-3
Format/Info : Audio Coding 3
Mode extension : CM (complete main)
Format settings, Endianness : Big
Codec ID : A_AC3
Duration : 1 h 47 min
Bit rate mode : Constant
Bit rate : 192 kb/s
Channel(s) : 2 channels
Channel positions : Front: L R
Sampling rate : 48.0 kHz
Frame rate : 31.250 FPS (1536 spf)
Bit depth : 16 bits
Compression mode : Lossy
Delay relative to video : 120 ms
Stream size : 147 MiB (2%)
Title : 1 Авто | Максим Подзігун
Language : Ukrainian
Default : Yes
Forced : Yes

Audio #2
ID : 3
Format : MPEG Audio
Format version : Version 1
Format profile : Layer 2
Codec ID : A_MPEG/L2
Codec ID/Hint : MP2
Duration : 1 h 47 min
Bit rate mode : Constant
Bit rate : 192 kb/s
Channel(s) : 2 channels
Sampling rate : 48.0 kHz
Frame rate : 41.667 FPS (1152 spf)
Compression mode : Lossy
Delay relative to video : 128 ms
Stream size : 147 MiB (2%)
Title : Інтершум
Default : No
Forced : No
Скріншоти:


Автор запису/зведення: sergiyko


 Трекер:    Зареєстрований   

Завантажити / скачати торрент



відео для новачків



 Зареєстрований:   2018-03-25 12:26
 Розмір:   8.52 GB 
 Оцінка:   10/10 (Голосів: 16)
   
chapa_rock 
Частий відвідувач


З нами з: 03.06.10
Востаннє: 04.09.20
Повідомлень: 37

2018-03-25 12:32  
спасибі)
winterers 
Новенький


З нами з: 04.03.12
Востаннє: 02.01.20
Повідомлень: 2

2018-03-25 12:55  
дякую
Я не робoт 
Новенький


З нами з: 24.03.18
Востаннє: 12.05.18
Повідомлень: 2

2018-03-25 13:22  
Спасибо)
Umbrella.Corps 
Свій


З нами з: 09.04.17
Востаннє: 27.09.20
Повідомлень: 60

2018-03-25 13:33  
Я вибачаюсь, а чому "перегони"? Правильно буде гонка.
Перегони, це загальне поняття, це як все гран-прі від першої практики до гонки.
А гонка - конкретна подія в перегонах.
Виправте мене якщо я не правий.)

povudlo 
Новенький


З нами з: 17.09.14
Востаннє: 19.10.20
Повідомлень: 22

2018-03-25 14:54  
Коли можна очікувати на повний запис прямої трансляції, без вирізів?
sergiyko.5 
VIP


З нами з: 25.02.16
Востаннє: 20.10.20
Повідомлень: 3578

2018-03-25 15:22  
povudlo написано:
Коли можна очікувати на повний запис прямої трансляції, без вирізів?

Коли з'явиться повне відео, якщо мова про HD. Запис Першого автомобільного є в мережі, але картинка погана, так транслює наш телеканал.

sosothit 
Частий відвідувач


З нами з: 29.10.09
Востаннє: 07.05.20
Повідомлень: 33

2018-03-25 22:28  
дуже класно, що перший автомобільний транслює f1 цього року
povudlo 
Новенький


З нами з: 17.09.14
Востаннє: 19.10.20
Повідомлень: 22

2018-03-25 23:00  
з такою картинкою можна сказати, що 1й автомобільний нічого не транслює
Ваш часовий пояс: GMT + 2 Години

Нова тема   Відповісти