Сіль Землі / The Salt of the Earth (2014) 720p Ukr/Fre | Sub Ukr/Eng/Fre

Нові коментарі

Нова тема   Відповісти
Автор Повідомлення
Anonymous 







2018-03-24 17:11  

Remux | AVC | | (субтитри)
| [url=незабаром] 1080p[/url]

Сіль Землі / The Salt of the Earth (2014) 720p Ukr/Fre | Sub Ukr/Eng/Fre

Сіль Землі / The Salt of the Earth (2014) 720p Ukr/Fre | Sub Ukr/Eng/Fre


Жанр: біографічний, документальний, історичний
Країна: Франція, Італія, Бразилія



Телеканал / кіностудія: Decia Films, Amazonas Images, Solares Fondazione delle arti
Режисер: Джуліано Рібейро Сальгадо / Juliano Ribeiro Salgado, Вім Вендерс / Wim Wenders
Актори: Себастьяно Сальгадо / Sebastião Salgado, Вім Вендерс / Wim Wenders, Джуліано Рібейро Сальгадо / Juliano Ribeiro Salgado, Г'юго Барбьє / Hugo Barbier, Жак Бартелемі / Jacques Barthélémy та інші

Сюжет:
Протягом останніх сорока років, фотограф Себастьян Сальгадо подорожував через континенти, по слідах постійно мінливого людства. Він став свідком основних подій нашої недавньої історії, міжнародних конфліктів, голоду і міграцій... Сальгадо присвятив себе відкриттю незайманих територій, дикій фауні і флорі, грандіозним ландшафтам: його останній фотопроект - данина поваги до краси планети.


Тривалість: 01:50:01
Якість: 720p
Відео:
кодек:
розмір кадру: 1280х690
бітрейт: 3941 кб/с [crf=17]

Аудіо # 1:
мова: українська
переклад: багатоголосий закадровий | студія Цікава Ідея
кодек: 5.1
бітрейт: 640 кб/с

Аудіо # 2:
мова: французька
переклад: оригінал
кодек: 5.1
бітрейт: 640 кб/с

Субтитри # 1 :
мова: українська (повні)
тип: програмні (м'які)
формат: *.srt

Субтитри # 2-3 :
мова: англійська (повні, SDH)
тип: програмні (м'які)
формат: *.srt

Субтитри # 4-5 :
мова: французька (повні, форсовані)
тип: програмні (м'які)
формат: *.srt

Збережено оригінальні розділи, як на Blu-ray
Info
Код:
Complete name               : The Salt of the Earth (2014) [Ukr,Fre sub.Ukr,Eng,Fre] 720p [Hurtom].
Format                      :
Format version              : Version 4 / Version 2
File size                   : 4.01 GiB
Duration                    : 1 h 50 min
Overall bit rate            : 5 223 kb/s
Movie name                  : Сіль Землі / Le sel de la terre / The Salt of the Earth: A Journey with Sebastião Salgado (2014) [Ukr,Fre sub.Ukr,Eng,Fre] 720p [Hurtom]
Released date               : 2014
Encoded date                : UTC 2018-03-24 14:12:21
Writing application         : v21.0.0 ('Tardigrades Will Inherit The Earth') 64-bit
Writing library             : libebml v1.3.5 + v1.4.8
Cover                       : Yes
Comment                     : http://www.imdb.com/title/tt3674140/
Attachments                 : cover.jpg
ARTIST                      : Себастьяно Сальгадо / Sebastião Salgado, Вім Вендерс / Wim Wenders, Джуліано Рібейро Сальгадо / Juliano Ribeiro Salgado, Г'юго Барбьє / Hugo Barbier, Жак Бартелемі / Jacques Barthélémy та інші
DIRECTOR                    : Джуліано Рібейро Сальгадо / Juliano Ribeiro Salgado, Вім Вендерс / Wim Wenders
GENRE                       : біографічний, документальний, історичний
SYNOPSIS                    : Протягом останніх сорока років, фотограф Себастьян Сальгадо подорожував через континенти, по слідах постійно мінливого людства. Він став свідком основних подій нашої недавньої історії, міжнародних конфліктів, голоду і міграцій... Сальгадо присвятив себе відкриттю незайманих територій, дикій фауні і флорі, грандіозним ландшафтам: його останній фотопроект - данина поваги до краси планети...
Url                         : https://toloka.to/t88784

Video
ID                          : 1
Format                      : AVC
Format/Info                 : Advanced Video Codec
Format profile              : [email protected]
Format settings             : CABAC / 9 Ref Frames
Format settings, CABAC      : Yes
Format settings, ReFrames   : 9 frames
Codec ID                    : V_MPEG4/ISO/AVC
Duration                    : 1 h 50 min
Bit rate                    : 3 941 kb/s
Width                       : 1 280 pixels
Height                      : 690 pixels
Display aspect ratio        : 1.85:1
Frame rate mode             : Constant
Frame rate                  : 23.976 (24000/1001) FPS
Color space                 : YUV
Chroma subsampling          : 4:2:0
Bit depth                   : 8 bits
Scan type                   : Progressive
Bits/(Pixel*Frame)          : 0.186
Stream size                 : 3.03 GiB (75%)
Title                       : Сіль Землі / Le sel de la terre / The Salt of the Earth (2014) 720p [French Blu-ray]
Writing library             : core 142 r2479 dd79a61
Encoding settings           : cabac=1 / ref=9 / deblock=1:-1:-1 / analyse=0x3:0x133 / me=umh / subme=10 / psy=1 / psy_rd=1.00:0.10 / mixed_ref=1 / me_range=32 / chroma_me=1 / trellis=2 / 8x8dct=1 / cqm=0 / deadzone=21,11 / fast_pskip=0 / chroma_qp_offset=-3 / threads=12 / lookahead_threads=3 / sliced_threads=0 / nr=0 / decimate=0 / interlaced=0 / bluray_compat=0 / constrained_intra=0 / bframes=16 / b_pyramid=2 / b_adapt=2 / b_bias=0 / direct=3 / weightb=1 / open_gop=0 / weightp=2 / keyint=250 / keyint_min=23 / scenecut=40 / intra_refresh=0 / rc_lookahead=80 / rc=crf / mbtree=0 / crf=17.0 / qcomp=0.75 / qpmin=0 / qpmax=69 / qpstep=4 / vbv_maxrate=38000 / vbv_bufsize=30000 / crf_max=0.0 / nal_hrd=none / filler=0 / ip_ratio=1.40 / pb_ratio=1.30 / aq=1:0.90
Language                    : French
Default                     : Yes
Forced                      : No

Audio #1
ID                          : 2
Format                      : AC-3
Format/Info                 : Audio Coding 3
Codec ID                    : A_AC3
Duration                    : 1 h 50 min
Bit rate mode               : Constant
Bit rate                    : 640 kb/s
Channel(s)                  : 6 channels
Channel positions           : Front: L C R, Side: L R, LFE
Sampling rate               : 48.0 kHz
Frame rate                  : 31.250 FPS (1536 SPF)
Bit depth                   : 16 bits
Compression mode            : Lossy
Stream size                 : 504 MiB (12%)
Title                       : MVO [Cikava ideya] 5.1 640 Kbps [Hurtom]
Language                    : Ukrainian
Service kind                : Complete Main
Default                     : Yes
Forced                      : Yes

Audio #2
ID                          : 3
Format                      : AC-3
Format/Info                 : Audio Coding 3
Codec ID                    : A_AC3
Duration                    : 1 h 50 min
Bit rate mode               : Constant
Bit rate                    : 640 kb/s
Channel(s)                  : 6 channels
Channel positions           : Front: L C R, Side: L R, LFE
Sampling rate               : 48.0 kHz
Frame rate                  : 31.250 FPS (1536 SPF)
Bit depth                   : 16 bits
Compression mode            : Lossy
Stream size                 : 504 MiB (12%)
Title                       : Original, 5.1 640 Kbps
Language                    : French
Service kind                : Complete Main
Default                     : No
Forced                      : No

Text #1
ID                          : 4
Format                      : UTF-8
Codec ID                    : S_TEXT/UTF8
Codec ID/Info               : UTF-8 Plain Text
Duration                    : 1 h 43 min
Bit rate                    : 97 b/s
Count of elements           : 1183
Stream size                 : 74.5 KiB (0%)
Title                       : Ukr full [Megogo]
Language                    : Ukrainian
Default                     : No
Forced                      : No

Text #2
ID                          : 5
Format                      : UTF-8
Codec ID                    : S_TEXT/UTF8
Codec ID/Info               : UTF-8 Plain Text
Duration                    : 1 h 43 min
Bit rate                    : 55 b/s
Count of elements           : 1186
Stream size                 : 42.5 KiB (0%)
Title                       : Eng full
Language                    : English
Default                     : No
Forced                      : No

Text #3
ID                          : 6
Format                      : UTF-8
Codec ID                    : S_TEXT/UTF8
Codec ID/Info               : UTF-8 Plain Text
Duration                    : 1 h 44 min
Bit rate                    : 66 b/s
Count of elements           : 1338
Stream size                 : 50.7 KiB (0%)
Title                       : Eng SDH
Language                    : English
Default                     : No
Forced                      : No

Text #4
ID                          : 7
Format                      : UTF-8
Codec ID                    : S_TEXT/UTF8
Codec ID/Info               : UTF-8 Plain Text
Duration                    : 1 h 44 min
Bit rate                    : 22 b/s
Count of elements           : 401
Stream size                 : 17.5 KiB (0%)
Title                       : French full
Language                    : French
Default                     : No
Forced                      : No

Text #5
ID                          : 8
Format                      : UTF-8
Codec ID                    : S_TEXT/UTF8
Codec ID/Info               : UTF-8 Plain Text
Duration                    : 1 h 30 min
Bit rate                    : 5 b/s
Count of elements           : 112
Stream size                 : 3.81 KiB (0%)
Title                       : French forced
Language                    : French
Default                     : No
Forced                      : No

Menu
00:00:00.000                : fr:00:00:00.000
00:06:57.917                : fr:00:06:57.917
00:17:19.413                : fr:00:17:19.413
00:29:31.728                : fr:00:29:31.728
00:39:03.507                : fr:00:39:03.507
00:47:38.105                : fr:00:47:38.105
01:03:36.062                : fr:01:03:36.062
01:11:35.958                : fr:01:11:35.958
01:19:49.659                : fr:01:19:49.659
01:27:34.123                : fr:01:27:34.123
01:37:04.652                : fr:01:37:04.652
01:45:06.508                : fr:01:45:06.508
Скріншоти
будуть трішечки згодом
Озвучення фільму створено завдяки зібраним коштам у темі Озвучення фільму "Сіль землі" / "The Salt of the Earth" (2014)
Велика подяка користувачам, що фінансово допомогли проекту

Skrunja, poolvetrum, pony, Форкуш, Tania-Iris, Pylorama, Толя/DukeNukem, ag4, Рідний простір, forest17, vtischenko, mbahriy, vanyok23, NeetScrool, MutuLI, drtato, nestor_b, ex_edc, Sehrg-Gut, ALFROMEDA, igor911
Джерело: &


Авторський реліз (завантажувати можна без реєстрації)
 Трекер:    Зареєстрований   

Завантажити / скачати фільм українською



відео для новачків



 Зареєстрований:   2018-03-24 17:24
 Розмір:   4.01 GB 
 Оцінка фільму:   9.4/10 (Голосів: 7)
   
Anonymous 







2018-03-26 17:26  
Незабаром реліз буде оновлено звуком 5.1
qarty1 
Поважний учасник


З нами з: 01.11.09
Востаннє: 15.09.19
Повідомлень: 248

2019-04-23 20:54  
старшні фотографії з африки, голод це жахіття а нищення людей тому що у них друга релігія, шкіра і т.п. це дійсно як сказано у фільмі людина гірше тварини(
Ваш часовий пояс: GMT + 2 Години

Нова тема   Відповісти