Астрал: Останній ключ / Insidious: The Last Key (2018) Remux 1080p Ukr/Eng | Sub Ukr/Eng

Нові коментарі

Нова тема   Відповісти
Автор Повідомлення
staf777 
Попереджень: 1
Попереджень: 1 


З нами з: 16.11.16
Востаннє: 20.04.18
Повідомлень: 963

2018-03-24 14:26  
Астрал: Останній ключ / Insidious: The Last Key (2018) Remux 1080p Ukr/Eng | Sub Ukr/Eng

Астрал: Останній ключ / Insidious: The Last Key (2018) Remux 1080p Ukr/Eng | Sub Ukr/Eng

«Страхи минулого знайдуть тебе»

Жанр: детектив, трилер, жахи
Країна: США, Канада



Кінокомпанія: Entertainment One, Stage 6 Films, Blumhouse Productions, Entertainment One, LStar Capital
Режисер: Адам Робітел
Актори: Лін Шей, Лі Воннелл, Енгус Семпсон, Кірк Асеведо, Спенсер Лок, Джош Стюарт, Брюс Девісон, Хав'єр Ботет, Маркус Хендерсон, Гана Гейєс та інші

Сюжет:
Сюжет нової стрічки розгортається довкола Еліс Рейнер (Лін Шей), екстрасенса-медіума, що намагається вести боротьбу із демонами Астралу. Еліс намагається розібратися у надзвичайних явищах, що відбуваються у будинку в Нью-Мексико, та від яких потерпає родина, яка там мешкає.


Тривалість: 01:43:24
Якість: Remux 1080p
Відео:
кодек:
розмір кадру: 1920 х 1080
бітрейт: 25,9 Mб/с

Аудіо # 1:
мова: українська
переклад: професійний дубльований | студія LeDoyen
кодек: 2.0 [stereo]
бітрейт: 192 кб/с
Інформація про дубляж
Переклад: Олекса Негребецький
Режисер дубляжу: Олекса Негребецький
Звукорежисер: Віктор Алферов
Звукорежисер перезапису: Михайло Угрин
Координатор дубляжу: Анна Харківська
Ролі дублювали: Ірина Дорошенко, Юрій Кудрявець, Сергій Солопай, Марія Ніколенко та інші.
Фільм надано компанією Columbia Pictures. Дубльовано і зміксовано студією LeDoyen на замовлення компанії B&H Film Distribution.
Аудіо # 2:
мова: англійська
переклад: оригінал
кодек: -HD MA 5.1
бітрейт: 2151 кб/с

Субтитри (Full, Forced):
мова: українська
тип: програмні (м'які)
формат: *.srt

Субтитри (Full):
мова: англійська
тип: програмні (м'які)
формат: *.srt
Info
Код:
General
Unique ID                                : 183926596599982524230194640049970866153 (0x8A5EF957CF2F2961AE3964879EEBE7E9)
Complete name                            : H:\Майбутні релізи\Insidious The Last Key (2018) Remux 1080p [Ukr][Eng][Sub Ukr,Eng][Hurtom].
Format                                   :
Format version                           : Version 4 / Version 2
File size                                : 20.4 GiB
Duration                                 : 1 h 43 min
Overall bit rate mode                    : Variable
Overall bit rate                         : 28.2 Mb/s
Movie name                               : Insidious: The Last Key (2018) Remux 1080p [Ukr][Eng][Sub Ukr,Eng][Hurtom]
Encoded date                             : UTC 2018-03-24 11:28:31
Writing application                      : mkvmerge v9.8.0 ('Kuglblids') 64bit
Writing library                          : libebml v1.3.4 + libmatroska v1.4.5

Video
ID                                       : 1
Format                                   : AVC
Format/Info                              : Advanced Video Codec
Format profile                           : [email protected]
Format settings, CABAC                   : Yes
Format settings, ReFrames                : 2 frames
Format settings, GOP                     : M=1, N=10
Codec ID                                 : V_MPEG4/ISO/AVC
Duration                                 : 1 h 43 min
Bit rate mode                            : Variable
Bit rate                                 : 25.9 Mb/s
Width                                    : 1 920 pixels
Height                                   : 1 080 pixels
Display aspect ratio                     : 16:9
Frame rate mode                          : Constant
Frame rate                               : 23.976 (24000/1001) FPS
Color space                              : YUV
Chroma subsampling                       : 4:2:0
Bit depth                                : 8 bits
Scan type                                : Progressive
Bits/(Pixel*Frame)                       : 0.520
Stream size                              : 18.7 GiB (92%)
Language                                 : English
Default                                  : Yes
Forced                                   : No

Audio #1
ID                                       : 2
Format                                   : AC-3
Format/Info                              : Audio Coding 3
Mode extension                           : CM (complete main)
Format settings, Endianness              : Big
Codec ID                                 : A_AC3
Duration                                 : 1 h 43 min
Bit rate mode                            : Constant
Bit rate                                 : 192 kb/s
Channel(s)                               : 2 channels
Channel positions                        : Front: L R
Sampling rate                            : 48.0 kHz
Frame rate                               : 31.250 FPS (1536 spf)
Bit depth                                : 16 bits
Compression mode                         : Lossy
Stream size                              : 142 MiB (1%)
Title                                    : [UA-DUB]
Language                                 : Ukrainian
Default                                  : Yes
Forced                                   : Yes

Audio #2
ID                                       : 3
Format                                   :
Format/Info                              : Digital Theater Systems
Format profile                           : MA / Core
Mode                                     : 16
Format settings, Endianness              : Big
Codec ID                                 : A_DTS
Duration                                 : 1 h 43 min
Bit rate mode                            : Variable / Constant
Bit rate                                 : 2 151 kb/s / 1 509 kb/s
Channel(s)                               : 6 channels
Channel positions                        : Front: L C R, Side: L R, LFE
Sampling rate                            : 48.0 kHz
Frame rate                               : 93.750 FPS (512 spf)
Bit depth                                : 16 bits
Compression mode                         : Lossless / Lossy
Stream size                              : 1.55 GiB (8%)
Title                                    : Original
Language                                 : English
Default                                  : No
Forced                                   : No

Text #1
ID                                       : 4
Format                                   : UTF-8
Codec ID                                 : S_TEXT/UTF8
Codec ID/Info                            : UTF-8 Plain Text
Duration                                 : 1 h 41 min
Bit rate                                 : 0 b/s
Count of elements                        : 8
Stream size                              : 286 Bytes (0%)
Language                                 : Ukrainian
Default                                  : Yes
Forced                                   : Yes

Text #2
ID                                       : 5
Format                                   : UTF-8
Codec ID                                 : S_TEXT/UTF8
Codec ID/Info                            : UTF-8 Plain Text
Duration                                 : 1 h 42 min
Bit rate                                 : 47 b/s
Count of elements                        : 852
Stream size                              : 35.6 KiB (0%)
Title                                    : Full
Language                                 : Ukrainian
Default                                  : No
Forced                                   : No

Text #3
ID                                       : 6
Format                                   : UTF-8
Codec ID                                 : S_TEXT/UTF8
Codec ID/Info                            : UTF-8 Plain Text
Duration                                 : 1 h 34 min
Bit rate                                 : 34 b/s
Count of elements                        : 835
Stream size                              : 23.6 KiB (0%)
Title                                    : Full
Language                                 : English
Default                                  : No
Forced                                   : No

Menu
00:00:00.000                             : en:00:00:00.000
00:16:21.397                             : en:00:16:21.397
00:19:55.111                             : en:00:19:55.111
00:22:29.056                             : en:00:22:29.056
00:29:03.617                             : en:00:29:03.617
00:36:24.307                             : en:00:36:24.307
00:44:05.685                             : en:00:44:05.685
00:54:14.168                             : en:00:54:14.168
00:57:21.855                             : en:00:57:21.855
01:02:08.183                             : en:01:02:08.183
01:05:17.664                             : en:01:05:17.664
01:10:17.964                             : en:01:10:17.964
01:16:58.239                             : en:01:16:58.239
01:22:11.593                             : en:01:22:11.593
01:29:49.467                             : en:01:29:49.467
01:34:34.252                             : en:01:34:34.252
Скріншоти




Подяка сайту uafilm.tv за придбану доріжку, синхронізація та примусові субтитри - Electroz
Джерело: &


Золотий реліз (завантажене не впливає на рейтинг)
 Трекер:    Зареєстрований   

Завантажити / скачати фільм українською



відео для новачків



 Зареєстрований:   2018-03-24 15:50
 Розмір:   20.38 GB 
 Оцінка фільму:   6.9/10 (Голосів: 15)
   
strawmaster 
Новенький


З нами з: 08.06.12
Востаннє: 20.04.18
Повідомлень: 2

2018-03-26 09:40  
iMDb завищило рейтинг. Я поставив менший.
fsy777 
Частий відвідувач


З нами з: 16.01.12
Востаннє: 19.04.18
Повідомлень: 27

2018-03-29 17:11  
Астрал, ак і всі інші Астрали. Любителям жанру на раз подивитись саме те. 5,8 з 10 справедливий рейтинг
Uberwinder 
VIP


З нами з: 18.11.16
Востаннє: 19.04.18
Повідомлень: 251

2018-04-09 07:16  
Нудно, можливо було розраховано лише на поціновувачів жанру, але рейтинг явно завищений.
Ваш часовий пояс: GMT + 2 Години

Нова тема   Відповісти