Формула 1. Сезон 2018. Етап 1. Гран-Прі Австралії. Кваліфікація (24.03.2018) 720p 50fps Ukr/Eng

Нові коментарі

Нова тема   Відповісти
Автор Повідомлення
sergiyko.5 
VIP


З нами з: 25.02.16
Востаннє: 29.10.20
Повідомлень: 3647

2018-03-24 11:20  
Формула 1. Сезон 2018. Етап 1. Гран-Прі Австралії. Кваліфікація (24.03.2018) 720p 50fps Ukr/Eng


Формула 1. Сезон 2018. Етап 1. Гран-Прі Австралії. Кваліфікація (24.03.2018) 720p 50fps Ukr/Eng

Жанр: Перегони Формули 1
Країна: Австралія
Телеканал: Перший автомобільний, Sky Sport F1 HD
Коментатор: Максим Подзігун

Опис:
Кваліфікація першого сезону Гран-Прі Австралії 2018 року.


Тривалість: 01:48:35
Якість:

Відео: кодек: розмір кадру: 1280 х 720 бітрейт: 4537 кб/с
Аудіо # 1: мова: українська кодек: 2.0 бітрейт: 192 кб/с
Аудіо # 2: мова: англійська кодек: 5.1 бітрейт: 384 кб/с
Аудіо # 3: інтершум кодек: 5.1 бітрейт: 448 кб/с
Про файл:
General
Unique ID : 199846279999359088450875140836486596357 (0x9658FE558689BBE44C529D76E300C705)
Complete name : D:\Torrents\SPORT\Formula 1\F1.2018.Qualifying\F1.2018.01.Australia.Qualifying.AVC.720p.50fps.
Format :
Format version : Version 4 / Version 2
File size : 4.22 GiB
Duration : 1 h 48 min
Overall bit rate : 5 564 kb/s
Encoded date : UTC 2018-03-24 19:27:05
Writing application : v21.0.0 ('Tardigrades Will Inherit The Earth') 64-bit
Writing library : libebml v1.3.5 + v1.4.8

Video
ID : 1
Format : AVC
Format/Info : Advanced Video Codec
Format profile : [email protected]
Format settings, CABAC : Yes
Format settings, ReFrames : 4 frames
Codec ID : V_MPEG4/ISO/AVC
Duration : 1 h 48 min
Bit rate : 4 537 kb/s
Width : 1 280 pixels
Height : 720 pixels
Display aspect ratio : 16:9
Frame rate mode : Constant
Frame rate : 50.000 FPS
Color space : YUV
Chroma subsampling : 4:2:0
Bit depth : 8 bits
Scan type : Progressive
Bits/(Pixel*Frame) : 0.098
Stream size : 3.44 GiB (82%)
Writing library : core 148 r2705 3f5ed56
Encoding settings : cabac=1 / ref=3 / deblock=1:0:0 / analyse=0x3:0x113 / me=umh / subme=9 / psy=1 / psy_rd=1.00:0.00 / mixed_ref=1 / me_range=32 / chroma_me=1 / trellis=1 / 8x8dct=1 / cqm=0 / deadzone=21,11 / fast_pskip=1 / chroma_qp_offset=-2 / threads=18 / lookahead_threads=1 / sliced_threads=0 / nr=0 / decimate=1 / interlaced=0 / bluray_compat=0 / constrained_intra=0 / bframes=12 / b_pyramid=2 / b_adapt=1 / b_bias=0 / direct=1 / weightb=1 / open_gop=0 / weightp=2 / keyint=100 / keyint_min=10 / scenecut=40 / intra_refresh=0 / rc_lookahead=40 / rc=crf / mbtree=1 / crf=21.0 / qcomp=0.60 / qpmin=0 / qpmax=69 / qpstep=4 / vbv_maxrate=20000 / vbv_bufsize=25000 / crf_max=0.0 / nal_hrd=none / filler=0 / ip_ratio=1.40 / aq=1:1.00
Language : English
Default : Yes
Forced : No

Audio #1
ID : 2
Format : AC-3
Format/Info : Audio Coding 3
Mode extension : CM (complete main)
Format settings, Endianness : Big
Codec ID : A_AC3
Duration : 1 h 48 min
Bit rate mode : Constant
Bit rate : 192 kb/s
Channel(s) : 2 channels
Channel positions : Front: L R
Sampling rate : 48.0 kHz
Frame rate : 31.250 FPS (1536 spf)
Bit depth : 16 bits
Compression mode : Lossy
Delay relative to video : 22 ms
Stream size : 149 MiB (3%)
Title : 1 Auto
Language : Ukrainian
Default : Yes
Forced : Yes

Audio #2
ID : 3
Format : AC-3
Format/Info : Audio Coding 3
Mode extension : CM (complete main)
Format settings, Endianness : Big
Codec ID : A_AC3
Duration : 1 h 48 min
Bit rate mode : Constant
Bit rate : 384 kb/s
Channel(s) : 6 channels
Channel positions : Front: L C R, Side: L R, LFE
Sampling rate : 48.0 kHz
Frame rate : 31.250 FPS (1536 spf)
Bit depth : 16 bits
Compression mode : Lossy
Delay relative to video : 22 ms
Stream size : 298 MiB (7%)
Title : SkySports F1
Language : English
Default : No
Forced : No

Audio #3
ID : 4
Format : AC-3
Format/Info : Audio Coding 3
Mode extension : CM (complete main)
Format settings, Endianness : Big
Codec ID : A_AC3
Duration : 1 h 48 min
Bit rate mode : Constant
Bit rate : 448 kb/s
Channel(s) : 6 channels
Channel positions : Front: L C R, Side: L R, LFE
Sampling rate : 48.0 kHz
Frame rate : 31.250 FPS (1536 spf)
Bit depth : 16 bits
Compression mode : Lossy
Delay relative to video : 22 ms
Stream size : 348 MiB (8%)
Title : Natural Sounds
Default : No
Forced : No
Скріншоти:


Автор запису/зведення: Shewa1


Золотий реліз (завантажене не впливає на рейтинг)
 Трекер:    Зареєстрований   

Завантажити / скачати торрент



відео для новачків



 Зареєстрований:   2018-03-24 21:35
 Розмір:   4.22 GB 
 Оцінка:   10/10 (Голосів: 10)
   
o-posh 
Частий відвідувач


З нами з: 03.05.11
Востаннє: 25.10.20
Повідомлень: 44

2018-03-24 11:42  
Велика подяка за реліз, але прошу стати на роздачу

Додано через 54 секунди:

Дякую

sergiyko.5 
VIP


З нами з: 25.02.16
Востаннє: 29.10.20
Повідомлень: 3647

2018-03-24 11:44  
Роздаю, як і показує статистика цієї сторінки, двом бажаючим.
Umbrella.Corps 
Свій


З нами з: 09.04.17
Востаннє: 28.10.20
Повідомлень: 61

2018-03-24 12:53  
Спасибо за релиз) Стаю на раздачу)
Жаль что нет практики.

ProgBassing 
Попереджень: 1
Попереджень: 1 


З нами з: 08.03.08
Востаннє: 28.10.20
Повідомлень: 873

2018-03-24 13:28  
от мені цікаво, чому в цього, сумнівної шанованості пана Umbrella.Corps, досі немає попередження про агресивність його дописів (тобто про їхню російськорогість)???

п'ять з восьми коментів цього ю(лу-)зера мовою агресора і наче так і треба :І

про реліз..
дивно, що наших людей не бентежить російськомовний відеоряд, хотів узяти цю роздачу, але тут таке...

sergiyko.5 
VIP


З нами з: 25.02.16
Востаннє: 29.10.20
Повідомлень: 3647

2018-03-24 13:37  
ProgBassing
Відеоряд англомовний, за виключенням логотипу. Зробіть краще, хто чи що вам заважає!?

На даний момент з доступних тільки матеріал телеканалу Матч-ТБ, а наш телеканал має неякісне відео.

Umbrella.Corps 
Свій


З нами з: 09.04.17
Востаннє: 28.10.20
Повідомлень: 61

2018-03-24 15:25  
ProgBassing написано:

от мені цікаво, чому в цього, сумнівної шанованості пана Umbrella.Corps, досі немає попередження про агресивність його дописів (тобто про їхню російськорогість)???

п'ять з восьми коментів цього ю(лу-)зера мовою агресора і наче так і треба :І

Шановний ProgBassing, у Вас якісь проблеми? Зверніться будь ласка до вашого сімейного психіатру. Так як бачу що Вас занадто бомбить.
І покажіть мені в якому саме місці я проявив агресію. Дякую.
Ще, наскільки я знаю, у нас вільна країна, і спілкуватися можна на будь якій мові.

SantAnder 
Новенький


З нами з: 04.04.15
Востаннє: 26.10.20
Повідомлень: 1

2018-03-24 16:19  
Дуже дякую за реліз
ProgBassing 
Попереджень: 1
Попереджень: 1 


З нами з: 08.03.08
Востаннє: 28.10.20
Повідомлень: 873

2018-03-24 17:35  
Umbrella.Corps, простого вибачення було б достатньо

...і взагалі, питання моє стосувалося модерів

Umbrella.Corps 
Свій


З нами з: 09.04.17
Востаннє: 28.10.20
Повідомлень: 61

2018-03-24 18:57  
ProgBassing написано:
Umbrella.Corps, простого вибачення було б достатньо

Я щось не дуже розумію, це я повинен вибачитись? За що? За "сумнівної шанованості пана Umbrella.Corps" чи "про агресивність його дописів"?
Вам не здається що Ви трішечки "перегинаєте палицю"?
---
Пане ProgBassing, ви що, на вулиці кожній російськомовній особі морду б'єте? Що ж в такому разі Вам потрібно пів України перебити...

sergiyko.5 
VIP


З нами з: 25.02.16
Востаннє: 29.10.20
Повідомлень: 3647

2018-03-24 21:37  
Торент оновлено. Представлено повну версію кваліфікації.
ProgBassing 
Попереджень: 1
Попереджень: 1 


З нами з: 08.03.08
Востаннє: 28.10.20
Повідомлень: 873

2018-03-24 22:43  
Umbrella.Corps
морди, бомби й психіатри, то все ваше, нехай там і залишається
...коли хтось (а тим паче українці) говорить російською - це вже агресія стосовно всього нашого суспільства (наші ж митці-росолюби, то взагалі тотальні зрадники). тут - це неповага до творців толоки і решти її користувачів; нахабна і послідовна неповага - це агресія

...але де ж вам, шанувальнику комуняцького суржика, зрозозуміти навіть таку просту логіку?! :І

Umbrella.Corps 
Свій


З нами з: 09.04.17
Востаннє: 28.10.20
Повідомлень: 61

2018-03-24 22:52  
Що саме добавлено?
sergiyko.5 
VIP


З нами з: 25.02.16
Востаннє: 29.10.20
Повідомлень: 3647

2018-03-24 22:56  
У першому варіанті у відео МАТЧ-ТБ була вирізана реклама, довжина 01:09:00 зараз повна версія від Sky Sport F1 HD - 01:48:35
Kapters 
Новенький


З нами з: 08.12.13
Востаннє: 28.10.20
Повідомлень: 24

2018-03-25 00:01  
sergiyko.5 написано:
sergiyko.5

Чи маєте змогу саму гонку завтра викласти відразу від Sky Sport F1 HD? Оминувши Матч ТБ...

sergiyko.5 
VIP


З нами з: 25.02.16
Востаннє: 29.10.20
Повідомлень: 3647

2018-03-25 00:28  
Kapters
А як ви думаєте, якби мав таку змогу, чому б не зарелізив зразу?

Відьмачечок 
Свій


З нами з: 17.05.11
Востаннє: 28.10.20
Повідомлень: 129

2018-03-25 09:14  
sergiyko.5
Дякую, гонку теж можна чекати від Вас?

o-posh 
Частий відвідувач


З нами з: 03.05.11
Востаннє: 25.10.20
Повідомлень: 44

2018-03-25 09:39  
Доброго ранку! З нетерпінням чекаю на гонку!
shaleny 
Новенький


З нами з: 09.09.17
Востаннє: 28.10.20
Повідомлень: 1

2018-03-25 10:45  
чекаю гонку, коли буде?
Лукавий 
Частий відвідувач


З нами з: 06.09.09
Востаннє: 16.10.20
Повідомлень: 46

2018-03-25 10:49  
Umbrella.Corps

Уважно читайте правила толоки:

Всім без винятку заборонено:
2.1 Спілкуватися іншою мовою, аніж літературною українською; використовувати для написання українських слів іншу абетку, аніж кирилицю.

taramon 
Частий відвідувач


З нами з: 28.09.09
Востаннє: 25.10.20
Повідомлень: 45

2018-03-25 20:53  
дякую!!!
RissRiss 
Новенький


З нами з: 26.03.18
Востаннє: 25.10.20
Повідомлень: 3

2018-03-29 09:22  
Дуже дякую!
Ваш часовий пояс: GMT + 2 Години

Нова тема   Відповісти