Формула 1. Сезон 2018. Етап 1. Гран-Прі Австралії. Кваліфікація (24.03.2018) HDTV 1080i

Нові коментарі

Нова тема   Відповісти
Останній раз роздавалося e_yaschuk (2020-05-14)
Автор Повідомлення
sergiyko.5 
VIP


З нами з: 25.02.16
Востаннє: 28.10.20
Повідомлень: 3644

2018-03-24 10:46  
Формула 1. Сезон 2018. Етап 1. Гран-Прі Австралії. Кваліфікація (24.03.2018) HDTV 1080i


Формула 1. Сезон 2018. Етап 1. Гран-Прі Австралії. Кваліфікація (24.03.2018) HDTV 1080i

Жанр: Перегони Формули 1
Країна: Австралія
Телеканал: Перший автомобільний
Коментатор: Максим Подзігун

Опис:
Кваліфікація першого сезону Гран-Прі Австралії 2018 року.


Тривалість: 01:09:06
Якість: HDTV

Відео:кодек: розмір кадру: 1920 х 1080 бітрейт: 10000 кб/с
Аудіо # 1: мова: українська кодек: 2.0 бітрейт: 192 кб/с
Аудіо # 2: інтершум кодек: MP2 2.0 бітрейт: 192 кб/с

Дод. інформація: відео з Матч-ТБ має вирізану рекламу, тому час кінцевого відеофайла коротший за час прямої трансляції. Також відсутня фінальна прес-конференція.
Про файл:
General
Unique ID : 333225806633910914644042441892388229738 (0xFAB0F4B76D7B2EF1E70E577E8435526A)
Complete name : D:\Torrents\SPORT\Formula 1\F1.2018.Qualifying\F1.2018.01.Australia.Qualifying.1080i.HDTV.Ukr.Int.
Format :
Format version : Version 4 / Version 2
File size : 5.07 GiB
Duration : 1 h 9 min
Overall bit rate : 10.5 Mb/s
Movie name : F1.2018.01.Australia.Qualifying.1080i.HDTV.Ukr.Int by sergiyko
Encoded date : UTC 2018-03-24 08:40:47
Writing application : v21.0.0 ('Tardigrades Will Inherit The Earth') 64-bit
Writing library : libebml v1.3.5 + v1.4.8

Video
ID : 1
Format : AVC
Format/Info : Advanced Video Codec
Format profile : [email protected]
Format settings, CABAC : Yes
Format settings, ReFrames : 4 frames
Codec ID : V_MPEG4/ISO/AVC
Duration : 1 h 9 min
Bit rate : 10.1 Mb/s
Width : 1 920 pixels
Height : 1 080 pixels
Display aspect ratio : 16:9
Frame rate mode : Variable
Frame rate : 50.000 FPS
Original frame rate : 25.000 FPS
Standard : Component
Color space : YUV
Chroma subsampling : 4:2:0
Bit depth : 8 bits
Scan type : Interlaced
Scan type, store method : Separated fields
Scan order : Top Field First
Bits/(Pixel*Frame) : 0.098
Stream size : 4.88 GiB (96%)
Title : F1.2018.01.Australia.Qualifying.1080i.HDTV.Ukr.Int
Language : English
Default : Yes
Forced : No
Color range : Limited
Color primaries : BT.709
Transfer characteristics : BT.709
Matrix coefficients : BT.709

Audio #1
ID : 2
Format : AC-3
Format/Info : Audio Coding 3
Mode extension : CM (complete main)
Format settings, Endianness : Big
Codec ID : A_AC3
Duration : 1 h 9 min
Bit rate mode : Constant
Bit rate : 192 kb/s
Channel(s) : 2 channels
Channel positions : Front: L R
Sampling rate : 48.0 kHz
Frame rate : 31.250 FPS (1536 spf)
Bit depth : 16 bits
Compression mode : Lossy
Delay relative to video : 120 ms
Stream size : 94.9 MiB (2%)
Title : 1 Авто | Максим Подзігун
Language : Ukrainian
Default : Yes
Forced : Yes

Audio #2
ID : 3
Format : MPEG Audio
Format version : Version 1
Format profile : Layer 2
Codec ID : A_MPEG/L2
Codec ID/Hint : MP2
Duration : 1 h 9 min
Bit rate mode : Constant
Bit rate : 192 kb/s
Channel(s) : 2 channels
Sampling rate : 48.0 kHz
Frame rate : 41.667 FPS (1152 spf)
Compression mode : Lossy
Delay relative to video : 128 ms
Stream size : 94.9 MiB (2%)
Title : Інтершум
Default : No
Forced : No
Скріншоти:


Автор запису/зведення: sergiyko


 Трекер:    Зареєстрований   

Завантажити / скачати торрент



відео для новачків



 Зареєстрований:   2018-03-24 10:46
 Розмір:   5.07 GB 
 Оцінка:   9.5/10 (Голосів: 18)
   
him2009 
Новенький


З нами з: 08.09.12
Востаннє: 25.10.20
Повідомлень: 4

2018-03-24 10:51  
Переживав, що Вас забанили, і записів не буде. Дуже Вам дякую!
logonet 
Новенький


З нами з: 19.01.18
Востаннє: 28.10.20
Повідомлень: 5

2018-03-24 11:17  
Дякую. досить оперативно.
coolracer46 
Новенький


З нами з: 24.03.18
Востаннє: 12.09.20
Повідомлень: 1

2018-03-24 12:06  
Вялікі дзякуй!
Я не робoт 
Новенький


З нами з: 24.03.18
Востаннє: 12.05.18
Повідомлень: 2

2018-03-24 18:44  
Спасибо!
vadisv 
Новенький


З нами з: 24.03.18
Востаннє: 12.08.18
Повідомлень: 1

2018-03-24 19:32  
Дякую Happy
Ваш часовий пояс: GMT + 2 Години

Нова тема   Відповісти