Сіль Землі / The Salt of the Earth (2014) AVC Ukr/Fre | Sub Ukr/Eng/Fre

Нові коментарі

Нова тема   Відповісти
Автор Повідомлення
Anonymous 







2018-03-24 11:15  

Remux | | (субтитри) | 720p
| [url=незабаром] 1080p[/url]

Сіль Землі / The Salt of the Earth (2014) AVC Ukr/Fre | Sub Ukr/Eng/Fre

Сіль Землі / The Salt of the Earth (2014) AVC Ukr/Fre | Sub Ukr/Eng/Fre


Жанр: біографічний, документальний, історичний
Країна: Франція, Італія, Бразилія



Телеканал / кіностудія: Decia Films, Amazonas Images, Solares Fondazione delle arti
Режисер: Джуліано Рібейро Сальгадо / Juliano Ribeiro Salgado, Вім Вендерс / Wim Wenders
Актори: Себастьяно Сальгадо / Sebastião Salgado, Вім Вендерс / Wim Wenders, Джуліано Рібейро Сальгадо / Juliano Ribeiro Salgado, Г'юго Барбьє / Hugo Barbier, Жак Бартелемі / Jacques Barthélémy та інші

Сюжет:
Протягом останніх сорока років, фотограф Себастьян Сальгадо подорожував через континенти, по слідах постійно мінливого людства. Він став свідком основних подій нашої недавньої історії, міжнародних конфліктів, голоду і міграцій... Сальгадо присвятив себе відкриттю незайманих територій, дикій фауні і флорі, грандіозним ландшафтам: його останній фотопроект - данина поваги до краси планети.


Тривалість: 01:50:01
Якість: AVC [Hurtom, джерело - Remux]
Відео:
кодек:
розмір кадру: 1024х552
бітрейт: 1679 кб/с [crf=18]

Аудіо # 1:
мова: українська
переклад: багатоголосий закадровий | студія Цікава Ідея
кодек: 5.1
бітрейт: 448 кб/с

Аудіо # 2:
мова: французька
переклад: оригінал
кодек: 5.1
бітрейт: 448 кб/с

Субтитри # 1 :
мова: українська (повні)
тип: програмні (м'які)
формат: *.srt

Субтитри # 2-3 :
мова: англійська (SDH, повні)
тип: програмні (м'які)
формат: *.srt

Субтитри # 4-5 :
мова: французька (повні, форсовані)
тип: програмні (м'які)
формат: *.srt

Збережено оригінальні розділи, як на Blu-ray
Info та log
Код:
Complete name               : The Salt of the Earth (2014) [Ukr,Fre sub.Ukr,Eng,Fre] AVC [Hurtom].
Format                      :
Format version              : Version 4 / Version 2
File size                   : 1.98 GiB
Duration                    : 1 h 50 min
Overall bit rate            : 2 577 kb/s
Movie name                  : Сіль Землі / The Salt of the Earth (2014) [Ukr,Fre sub.Ukr,Eng,Fre] AVC [Hurtom]
Released date               : 2014
Encoded date                : UTC 2018-03-24 08:16:17
Writing application         : v21.0.0 ('Tardigrades Will Inherit The Earth') 64-bit
Writing library             : libebml v1.3.5 + v1.4.8
Cover                       : Yes
Comment                     : http://www.imdb.com/title/tt3674140/
Attachments                 : cover.jpg
ARTIST                      : Себастьяно Сальгадо / Sebastião Salgado, Вім Вендерс / Wim Wenders, Джуліано Рібейро Сальгадо / Juliano Ribeiro Salgado, Г'юго Барбьє / Hugo Barbier, Жак Бартелемі / Jacques Barthélémy та інші
DIRECTOR                    : Джуліано Рібейро Сальгадо / Juliano Ribeiro Salgado, Вім Вендерс / Wim Wenders
GENRE                       : біографічний, документальний, історичний
SYNOPSIS                    : Протягом останніх сорока років, фотограф Себастьян Сальгадо подорожував через континенти, по слідах постійно мінливого людства. Він став свідком основних подій нашої недавньої історії, міжнародних конфліктів, голоду і міграцій... Сальгадо присвятив себе відкриттю незайманих територій, дикій фауні і флорі, грандіозним ландшафтам: його останній фотопроект - данина поваги до краси планети...
Url                         : https://toloka.to/t88774

Video
ID                          : 1
Format                      : AVC
Format/Info                 : Advanced Video Codec
Format profile              : [email protected]
Format settings             : CABAC / 12 Ref Frames
Format settings, CABAC      : Yes
Format settings, ReFrames   : 12 frames
Codec ID                    : V_MPEG4/ISO/AVC
Duration                    : 1 h 50 min
Bit rate                    : 1 679 kb/s
Width                       : 1 024 pixels
Height                      : 552 pixels
Display aspect ratio        : 1.85:1
Frame rate mode             : Constant
Frame rate                  : 23.976 (24000/1001) FPS
Color space                 : YUV
Chroma subsampling          : 4:2:0
Bit depth                   : 8 bits
Scan type                   : Progressive
Bits/(Pixel*Frame)          : 0.124
Stream size                 : 1.29 GiB (65%)
Title                       : Сіль Землі / The Salt of the Earth (2014) AVC [Hurtom, FRE Blu-ray]
Writing library             : core 155 r2901 7d0ff22
Encoding settings           : cabac=1 / ref=12 / deblock=1:-1:-1 / analyse=0x3:0x133 / me=umh / subme=10 / psy=1 / psy_rd=1.00:0.15 / mixed_ref=1 / me_range=32 / chroma_me=1 / trellis=2 / 8x8dct=1 / cqm=0 / deadzone=21,11 / fast_pskip=0 / chroma_qp_offset=-3 / threads=12 / lookahead_threads=3 / sliced_threads=0 / nr=0 / decimate=1 / interlaced=0 / bluray_compat=0 / constrained_intra=0 / bframes=12 / b_pyramid=2 / b_adapt=2 / b_bias=0 / direct=3 / weightb=1 / open_gop=0 / weightp=2 / keyint=240 / keyint_min=23 / scenecut=40 / intra_refresh=0 / rc_lookahead=60 / rc=crf / mbtree=0 / crf=18.0 / qcomp=0.60 / qpmin=0 / qpmax=69 / qpstep=4 / vbv_maxrate=62500 / vbv_bufsize=78125 / crf_max=0.0 / nal_hrd=none / filler=0 / ip_ratio=1.40 / pb_ratio=1.30 / aq=1:1.00
Language                    : French
Default                     : Yes
Forced                      : No

Audio #1
ID                          : 2
Format                      : AC-3
Format/Info                 : Audio Coding 3
Codec ID                    : A_AC3
Duration                    : 1 h 50 min
Bit rate mode               : Constant
Bit rate                    : 448 kb/s
Channel(s)                  : 6 channels
Channel positions           : Front: L C R, Side: L R, LFE
Sampling rate               : 48.0 kHz
Frame rate                  : 31.250 FPS (1536 SPF)
Bit depth                   : 16 bits
Compression mode            : Lossy
Stream size                 : 353 MiB (17%)
Title                       : MVO [Cikava ideya] 5.1 448 Kbps [Hurtom]
Language                    : Ukrainian
Service kind                : Complete Main
Default                     : Yes
Forced                      : Yes

Audio #2
ID                          : 3
Format                      : AC-3
Format/Info                 : Audio Coding 3
Codec ID                    : A_AC3
Duration                    : 1 h 50 min
Bit rate mode               : Constant
Bit rate                    : 448 kb/s
Channel(s)                  : 6 channels
Channel positions           : Front: L C R, Side: L R, LFE
Sampling rate               : 48.0 kHz
Frame rate                  : 31.250 FPS (1536 SPF)
Bit depth                   : 16 bits
Compression mode            : Lossy
Stream size                 : 353 MiB (17%)
Title                       : Original, 5.1 448 Kbps
Language                    : French
Service kind                : Complete Main
Default                     : No
Forced                      : No

Text #1
ID                          : 4
Format                      : UTF-8
Codec ID                    : S_TEXT/UTF8
Codec ID/Info               : UTF-8 Plain Text
Duration                    : 1 h 43 min
Bit rate                    : 97 b/s
Count of elements           : 1183
Stream size                 : 74.5 KiB (0%)
Title                       : Ukr full [Megogo]
Language                    : Ukrainian
Default                     : No
Forced                      : No

Text #2
ID                          : 5
Format                      : UTF-8
Codec ID                    : S_TEXT/UTF8
Codec ID/Info               : UTF-8 Plain Text
Duration                    : 1 h 44 min
Bit rate                    : 66 b/s
Count of elements           : 1338
Stream size                 : 50.7 KiB (0%)
Title                       : Eng SDH
Language                    : English
Default                     : No
Forced                      : No

Text #3
ID                          : 6
Format                      : UTF-8
Codec ID                    : S_TEXT/UTF8
Codec ID/Info               : UTF-8 Plain Text
Duration                    : 1 h 43 min
Bit rate                    : 62 b/s
Count of elements           : 1225
Stream size                 : 47.3 KiB (0%)
Title                       : Eng full
Language                    : English
Default                     : No
Forced                      : No

Text #4
ID                          : 7
Format                      : UTF-8
Codec ID                    : S_TEXT/UTF8
Codec ID/Info               : UTF-8 Plain Text
Duration                    : 1 h 44 min
Bit rate                    : 22 b/s
Count of elements           : 401
Stream size                 : 17.5 KiB (0%)
Title                       : French full
Language                    : French
Default                     : No
Forced                      : No

Text #5
ID                          : 8
Format                      : UTF-8
Codec ID                    : S_TEXT/UTF8
Codec ID/Info               : UTF-8 Plain Text
Duration                    : 1 h 30 min
Bit rate                    : 5 b/s
Count of elements           : 112
Stream size                 : 3.81 KiB (0%)
Title                       : French forced
Language                    : French
Default                     : No
Forced                      : No

Menu
00:00:00.000                : fr:00:00:00.000
00:06:57.917                : fr:00:06:57.917
00:17:19.413                : fr:00:17:19.413
00:29:31.728                : fr:00:29:31.728
00:39:03.507                : fr:00:39:03.507
00:47:38.105                : fr:00:47:38.105
01:03:36.062                : fr:01:03:36.062
01:11:35.958                : fr:01:11:35.958
01:19:49.659                : fr:01:19:49.659
01:27:34.123                : fr:01:27:34.123
01:37:04.652                : fr:01:37:04.652
01:45:06.508                : fr:01:45:06.508


Код:
raw  [info]: 1024x552p 1:1 @ 24000/1001 fps (cfr)
[info]: using SAR=1/1
[info]: using cpu capabilities: MMX2 SSE2Fast SSSE3 SSE4.2 AVX
[info]: profile High, level 4.1
[info]: frame I:945   Avg QP:11.96  size:151932
[info]: frame P:22540 Avg QP:15.08  size: 24285
[info]: frame B:134788 Avg QP:10.19  size:  5152
[info]: consecutive B-frames:  1.2%  0.8%  2.2%  7.2%  7.4% 25.1%  3.6%  1.8%  2.7%  3.0% 12.4%  5.2% 27.4%
[info]: mb I  I16..4: 28.7% 42.1% 29.2%
[info]: mb P  I16..4:  1.3%  6.6%  1.2%  P16..4: 24.7% 14.8% 13.6%  0.6%  0.3%    skip:36.9%
[info]: mb B  I16..4:  0.1%  0.6%  0.1%  B16..8: 15.6%  6.0%  2.2%  direct: 4.0%  skip:71.5%  L0:44.7% L1:40.4% BI:14.9%
[info]: 8x8 transform intra:67.9% inter:49.4%
[info]: direct mvs  spatial:98.6% temporal:1.4%
[info]: coded y,uvDC,uvAC intra: 86.2% 51.5% 37.2% inter: 14.8% 7.0% 1.2%
[info]: i16 v,h,dc,p: 40%  9% 28% 23%
[info]: i8 v,h,dc,ddl,ddr,vr,hd,vl,hu: 12% 13% 16%  7% 10%  9% 11%  9% 13%
[info]: i4 v,h,dc,ddl,ddr,vr,hd,vl,hu: 13% 13%  9%  8% 11% 10% 12% 10% 14%
[info]: i8c dc,h,v,p: 62% 21%  9%  8%
[info]: Weighted P-Frames: Y:6.4% UV:1.5%
[info]: ref P L0: 41.4% 10.4% 17.4%  6.0%  6.4%  4.1%  4.3%  2.1%  2.4%  1.7%  2.0%  1.6%  0.1%  0.0%
[info]: ref B L0: 66.2% 12.1%  6.5%  3.7%  2.9%  2.7%  2.1%  1.4%  1.2%  0.8%  0.3%
[info]: ref B L1: 93.8%  6.2%
[info]: kb/s:1678.89
encoded 158273 frames, 12.49 fps, 1678.89 kb/s
Constant Quality Mode: Quality 18 computed...
Video Bitrate Obtained (approximate): 1678 kbit/s
Скріншоти
будуть трішечки згодом
Озвучення фільму створено завдяки зібраним коштам у темі Озвучення фільму "Сіль землі" / "The Salt of the Earth" (2014)
Велика подяка користувачам, що фінансово допомогли проекту

Skrunja, poolvetrum, pony, Форкуш, Tania-Iris, Pylorama, Толя/DukeNukem, ag4, Рідний простір, forest17, vtischenko, mbahriy, vanyok23, NeetScrool, MutuLI, drtato, nestor_b, ex_edc, Sehrg-Gut, ALFROMEDA, igor911
Джерело:


Авторський реліз (завантажувати можна без реєстрації)
 Трекер:    Зареєстрований   

Завантажити / скачати торрент



відео для новачків



 Зареєстрований:   2018-03-24 11:33
 Розмір:   1.98 GB 
 Оцінка:   9.9/10 (Голосів: 14)
   
krigg070 
Відео Гуртом - фільмокрай
Відео Гуртом - фільмокрай


З нами з: 29.10.14
Востаннє: 26.04.19
Повідомлень: 1512

2018-03-25 19:10  
Anonymous написано:
5.1

Насправді не 5.1, а 2.0 (FL FR). Інші канали пусті. Начудили щось в ЦІ.

Додано через 4 хвилини 33 секунди:

+ додайте скріншоти

Anonymous 







2018-03-26 17:25  
незабаром реліз буде оновлено звуком 5.1
Форкуш 
VIP


З нами з: 03.02.10
Востаннє: 26.04.19
Повідомлень: 2397

2018-04-02 13:34  
то вже є новий звук чи ще ні?
Electroz 
Відео Гуртом - підтримка та поширення
Відео Гуртом - підтримка та поширення


З нами з: 18.09.14
Востаннє: 26.04.19
Повідомлень: 3279

2018-04-02 13:58  
Форкуш
Є, але в цьому релізі стерео.

Форкуш 
VIP


З нами з: 03.02.10
Востаннє: 26.04.19
Повідомлень: 2397

2018-04-10 22:37  
Скажіть, хто в темі, звідки в українському перекладі слова Себастьяно, буква Н?
molots 
Новенький


З нами з: 24.01.09
Востаннє: 21.04.19
Повідомлень: 10

2018-04-16 20:56  
тяжко споглядати на такі речі , ще важче доносити їх до людей.
ми ситі, напоєні, зігріті...
ще щось треба?
гроші?
так хочеться спокою...

ssTAss 
Модератор музики


З нами з: 05.07.08
Востаннє: 26.04.19
Повідомлень: 14959

2018-05-04 16:08  
Anonymous написано:

Скріншоти
будуть трішечки згодом

просто нагадаю, бо напевно забули

Anonymous 







2018-05-04 16:31  
ssTAss, не забув, днями оновлю якісніший звук і тоді ж додам скріншоти.
nosferatumes 
Свій


З нами з: 12.10.16
Востаннє: 26.04.19
Повідомлень: 58

2018-05-14 21:38  
Згоден з автором, наш вид занадто жорстокий. Хоча кінцівка напрочуд позитивна. Природа здатна відтворюватись за мінімальний час, лишень не заважати їй. А мудріше за все підтримувати природу.
Buksasinis 
Новенький


З нами з: 21.06.17
Востаннє: 13.04.19
Повідомлень: 2

2019-01-08 23:06  
Форкуш

ã - назальний звук а (звук "а", вимовлений в ніс).
Тому Sebastião вимовляється як щось середнє між Себастьяну і Себастьяу.

Ваш часовий пояс: GMT + 2 Години

Нова тема   Відповісти