Сіль Землі / The Salt of the Earth (2014) Remux 1080p Ukr/Fre | Sub Ukr/Eng/Fre

Нові коментарі

Нова тема   Відповісти
Автор Повідомлення
Anonymous 







2018-03-24 02:48  

AVC | | (субтитри) | 720p
| [url=в майбутньому] 1080p[/url]

Сіль Землі / The Salt of the Earth (2014) Remux 1080p Ukr/Fre | Sub Ukr/Eng/Fre

Альтернативні та оригінальні постери:



Сіль Землі / The Salt of the Earth (2014) Remux 1080p Ukr/Fre | Sub Ukr/Eng/Fre





Жанр: біографічний, документальний, історичний
Країна: Франція, Італія, Бразилія



Телеканал / кіностудія: Decia Films, Amazonas Images, Solares Fondazione delle arti
Режисер: Джуліано Рібейро Сальгадо / Juliano Ribeiro Salgado, Вім Вендерс / Wim Wenders
Актори: Себастьяно Сальгадо / Sebastião Salgado, Вім Вендерс / Wim Wenders, Джуліано Рібейро Сальгадо / Juliano Ribeiro Salgado, Г'юго Барбьє / Hugo Barbier, Жак Бартелемі / Jacques Barthélémy та інші

Сюжет:
Протягом останніх сорока років, фотограф Себастьян Сальгадо подорожував через континенти, по слідах постійно мінливого людства. Він став свідком основних подій нашої недавньої історії, міжнародних конфліктів, голоду і міграцій... Сальгадо присвятив себе відкриттю незайманих територій, дикій фауні і флорі, грандіозним ландшафтам: його останній фотопроект - данина поваги до краси планети.


Тривалість: 01:50:01
Якість: Remux 1080p [з французького блурея]
Відео:
кодек:
розмір кадру: 1920х1080
бітрейт: 16,9 Мб/с

Аудіо # 1:
мова: українська
переклад: багатоголосий закадровий | студія Цікава Ідея
кодек: -HD HRA 5.1
бітрейт: 3840 кб/с

Аудіо # 1:
мова: українська
переклад: багатоголосий закадровий | студія Цікава Ідея
кодек: 5.1
бітрейт: 1509 кб/с

Аудіо # 2:
мова: українська
переклад: багатоголосий закадровий | студія Цікава Ідея
кодек: 5.1
бітрейт: 640 кб/с
примітка: усі українські доріжки однакові за змістом, відрізняються лише форматом і додані для сумісності з різними пристроями відтворення

Аудіо # 3:
мова: французька
переклад: оригінал
кодек: -HD MA 5.1
бітрейт: 3385 кб/с

Субтитри # 1 :
мова: українська (повні)
тип: програмні (м'які)
формат: *.srt

Субтитри # 2-3 :
мова: англійська (SDH, повні)
тип: програмні (м'які)
формат: *.srt

Субтитри # 4-5 :
мова: французька (повні, форсовані)
тип: програмні (м'які)
формат: *.srt

Збережено оригінальні розділи, як на Blu-ray
Info
Код:
Complete name               : The Salt of the Earth (2014) [Ukr,Fre sub.Ukr,Eng,Fre] Remux 1080p [Hurtom].
Format                      :
Format version              : Version 4 / Version 2
File size                   : 20.2 GiB
Duration                    : 1 h 50 min
Overall bit rate mode       : Variable
Overall bit rate            : 26.3 Mb/s
Movie name                  : Сіль Землі / The Salt of the Earth (2014) [Ukr,Fre sub.Ukr,Eng,Fre] Remux 1080p [Hurtom]
Released date               : 2014
Encoded date                : UTC 2018-04-30 13:46:10
Writing application         : v22.0.0 ('At The End Of The World') 64-bit
Writing library             : libebml v1.3.5 + v1.4.8
Cover                       : Yes
Comment                     : http://www.imdb.com/title/tt3674140/
Attachments                 : cover.jpg
ARTIST                      : Себастьяно Сальгадо / Sebastião Salgado, Вім Вендерс / Wim Wenders, Джуліано Рібейро Сальгадо / Juliano Ribeiro Salgado, Г'юго Барбьє / Hugo Barbier, Жак Бартелемі / Jacques Barthélémy та інші
DIRECTOR                    : Джуліано Рібейро Сальгадо / Juliano Ribeiro Salgado, Вім Вендерс / Wim Wenders
GENRE                       : біографічний, документальний, історичний
SYNOPSIS                    : Протягом останніх сорока років, фотограф Себастьян Сальгадо подорожував через континенти, по слідах постійно мінливого людства. Він став свідком основних подій нашої недавньої історії, міжнародних конфліктів, голоду і міграцій... Сальгадо присвятив себе відкриттю незайманих територій, дикій фауні і флорі, грандіозним ландшафтам: його останній фотопроект - данина поваги до краси планети...
Url                         : https://toloka.to/t88771

Video
ID                          : 1
Format                      : AVC
Format/Info                 : Advanced Video Codec
Format profile              : [email protected]
Format settings             : CABAC / 4 Ref Frames
Format settings, CABAC      : Yes
Format settings, ReFrames   : 4 frames
Codec ID                    : V_MPEG4/ISO/AVC
Duration                    : 1 h 50 min
Bit rate mode               : Variable
Bit rate                    : 16.9 Mb/s
Maximum bit rate            : 39.0 Mb/s
Width                       : 1 920 pixels
Height                      : 1 080 pixels
Display aspect ratio        : 16:9
Frame rate mode             : Constant
Frame rate                  : 23.976 (24000/1001) FPS
Standard                    : NTSC
Color space                 : YUV
Chroma subsampling          : 4:2:0
Bit depth                   : 8 bits
Scan type                   : Progressive
Bits/(Pixel*Frame)          : 0.340
Stream size                 : 13.0 GiB (64%)
Title                       : Сіль Землі / The Salt of the Earth (2014) Remux 1080p [FRE Blu-ray]
Language                    : French
Default                     : Yes
Forced                      : No
Color range                 : Limited
Color primaries             : BT.709
Transfer characteristics    : BT.709
Matrix coefficients         : BT.709

Audio #1
ID                          : 2
Format                      :
Format/Info                 : Digital Theater Systems
Format profile              : HRA / Core
Codec ID                    : A_DTS
Duration                    : 1 h 50 min
Bit rate mode               : Constant
Bit rate                    : 3 840 kb/s / 1 509 kb/s
Channel(s)                  : 6 channels
Channel positions           : Front: L C R, Side: L R, LFE
Sampling rate               : 48.0 kHz
Frame rate                  : 93.750 FPS (512 SPF)
Bit depth                   : 24 bits
Compression mode            : Lossy
Stream size                 : 2.95 GiB (15%)
Title                       : MVO [Cikava ideya] -HD HRA 5.1 3840 Kbps [Hurtom]
Language                    : Ukrainian
Default                     : Yes
Forced                      : Yes

Audio #2
ID                          : 3
Format                      :
Format/Info                 : Digital Theater Systems
Codec ID                    : A_DTS
Duration                    : 1 h 50 min
Bit rate mode               : Constant
Bit rate                    : 1 509 kb/s
Channel(s)                  : 6 channels
Channel positions           : Front: L C R, Side: L R, LFE
Sampling rate               : 48.0 kHz
Frame rate                  : 93.750 FPS (512 SPF)
Bit depth                   : 24 bits
Compression mode            : Lossy
Stream size                 : 1.16 GiB (6%)
Title                       : MVO [Cikava ideya] 5.1 1509 Kbps [Hurtom]
Language                    : Ukrainian
Default                     : No
Forced                      : No

Audio #3
ID                          : 4
Format                      : AC-3
Format/Info                 : Audio Coding 3
Codec ID                    : A_AC3
Duration                    : 1 h 50 min
Bit rate mode               : Constant
Bit rate                    : 640 kb/s
Channel(s)                  : 6 channels
Channel positions           : Front: L C R, Side: L R, LFE
Sampling rate               : 48.0 kHz
Frame rate                  : 31.250 FPS (1536 SPF)
Bit depth                   : 16 bits
Compression mode            : Lossy
Stream size                 : 504 MiB (2%)
Title                       : MVO [Cikava ideya] 5.1 640 Kbps [Hurtom]
Language                    : Ukrainian
Service kind                : Complete Main
Default                     : No
Forced                      : No

Audio #4
ID                          : 5
Format                      :
Format/Info                 : Digital Theater Systems
Format profile              : MA / Core
Codec ID                    : A_DTS
Duration                    : 1 h 50 min
Bit rate mode               : Variable / Constant
Bit rate                    : 3 385 kb/s / 1 509 kb/s
Channel(s)                  : 6 channels
Channel positions           : Front: L C R, Side: L R, LFE
Sampling rate               : 48.0 kHz
Frame rate                  : 93.750 FPS (512 SPF)
Bit depth                   : 24 bits
Compression mode            : Lossless / Lossy
Stream size                 : 2.60 GiB (13%)
Title                       : Original, -HD MA 5.1 3385 Kbps
Language                    : French
Default                     : No
Forced                      : No

Text #1
ID                          : 6
Format                      : UTF-8
Codec ID                    : S_TEXT/UTF8
Codec ID/Info               : UTF-8 Plain Text
Duration                    : 1 h 43 min
Bit rate                    : 97 b/s
Count of elements           : 1183
Stream size                 : 74.5 KiB (0%)
Title                       : Ukr full [Megogo]
Language                    : Ukrainian
Default                     : No
Forced                      : No

Text #2
ID                          : 7
Format                      : UTF-8
Codec ID                    : S_TEXT/UTF8
Codec ID/Info               : UTF-8 Plain Text
Duration                    : 1 h 44 min
Bit rate                    : 66 b/s
Count of elements           : 1338
Stream size                 : 50.7 KiB (0%)
Title                       : Eng SDH
Language                    : English
Default                     : No
Forced                      : No

Text #3
ID                          : 8
Format                      : UTF-8
Codec ID                    : S_TEXT/UTF8
Codec ID/Info               : UTF-8 Plain Text
Duration                    : 1 h 43 min
Bit rate                    : 62 b/s
Count of elements           : 1225
Stream size                 : 47.3 KiB (0%)
Title                       : Eng full
Language                    : English
Default                     : No
Forced                      : No

Text #4
ID                          : 9
Format                      : UTF-8
Codec ID                    : S_TEXT/UTF8
Codec ID/Info               : UTF-8 Plain Text
Duration                    : 1 h 44 min
Bit rate                    : 22 b/s
Count of elements           : 401
Stream size                 : 17.5 KiB (0%)
Title                       : French full
Language                    : French
Default                     : No
Forced                      : No

Text #5
ID                          : 10
Format                      : UTF-8
Codec ID                    : S_TEXT/UTF8
Codec ID/Info               : UTF-8 Plain Text
Duration                    : 1 h 30 min
Bit rate                    : 5 b/s
Count of elements           : 112
Stream size                 : 3.81 KiB (0%)
Title                       : French forced
Language                    : French
Default                     : No
Forced                      : No

Menu
00:00:00.000                : fr:00:00:00.000
00:06:57.917                : fr:00:06:57.917
00:17:19.413                : fr:00:17:19.413
00:29:31.728                : fr:00:29:31.728
00:39:03.507                : fr:00:39:03.507
00:47:38.105                : fr:00:47:38.105
01:03:36.062                : fr:01:03:36.062
01:11:35.958                : fr:01:11:35.958
01:19:49.659                : fr:01:19:49.659
01:27:34.123                : fr:01:27:34.123
01:37:04.652                : fr:01:37:04.652
01:45:06.508                : fr:01:45:06.508


Озвучення фільму створено завдяки зібраним коштам у темі Озвучення фільму "Сіль землі" / "The Salt of the Earth" (2014)
Велика подяка користувачам, що фінансово допомогли проекту

Skrunja, poolvetrum, pony, Форкуш, Tania-Iris, Pylorama, Толя/DukeNukem, ag4, Рідний простір, forest17, vtischenko, mbahriy, vanyok23, NeetScrool, MutuLI, drtato, nestor_b, ex_edc, Sehrg-Gut, ALFROMEDA, igor911
Джерело:
Подяка за постери п.Pylorama

30.04.2018 реліз оновлено - замінено український звук якіснішим, справжнім 5.1 (до цього в доріжці були лише L та R канали).
Прохання перезавантажити реліз.


ЗАЛИШАЙТЕСЬ ЯКОМОГА ДОВШЕ НА РОЗДАЧІ
ЗАВАНТАЖИВ САМ - ДАЙ ЗАВАНТАЖИТИ ІНШИМ!


Авторський реліз (завантажувати можна без реєстрації)
 Трекер:    Зареєстрований   

Завантажити / скачати фільм українською



відео для новачків



 Зареєстрований:   2018-04-30 16:33
 Розмір:   20.21 GB 
 Оцінка фільму:   9.2/10 (Голосів: 9)
   
Electroz 
Відео Гуртом - підтримка та поширення
Відео Гуртом - підтримка та поширення


З нами з: 18.09.14
Востаннє: 16.12.19
Повідомлень: 3679

2018-03-24 07:14  
Anonymous написано:

кодек: 5.1
бітрейт: 1413 кб/с

Чистих голосів немає?
Варто вказати, що субтитри з мегого.

Anonymous 







2018-03-24 10:35  
Electroz написано:
Варто вказати

в медіаінфо вказано.

Skrunja 
Свій


З нами з: 13.06.12
Востаннє: 14.12.19
Повідомлень: 94

2018-04-02 16:52  
Будь ласка замініть постери в своїх роздачах на даний
https://img.hurtom.com/i/2018/03/_2.jpg

Anonymous 







2018-04-02 21:11  
Skrunja, так, релізи днями будуть оновлені, вибачаюсь за затримку.
Anonymous 







2018-04-30 16:36  
Реліз оновлено - українську доріжку замінено якіснішою, тепер справжньою 5.1 (до цього в доріжці були наявні лише L та R канали)
vash1 
Поважний учасник


З нами з: 16.03.16
Востаннє: 14.12.19
Повідомлень: 219

2018-11-30 22:05  
надзвичайне Кіно! щиро дякую!
fatum69 
Частий відвідувач


З нами з: 10.12.16
Востаннє: 15.12.19
Повідомлень: 38

2019-09-09 18:45  
був вражений
Ваш часовий пояс: GMT + 2 Години

Нова тема   Відповісти