Перевізник / The Transporter (2002) 1080p Ukr/Eng | Sub Eng

Нові коментарі

Нова тема   Відповісти
Автор Повідомлення
staf777 
Відео Гуртом - підтримка та поширення
Відео Гуртом - підтримка та поширення


З нами з: 16.11.16
Востаннє: 18.11.19
Повідомлень: 3031

2018-03-23 21:12  
Перевізник / The Transporter (2002) 1080p Ukr/Eng | Sub Eng

Перевізник / The Transporter (2002) 1080p Ukr/Eng | Sub Eng


Жанр: бойовик, трилер, кримінальний
Країна: США, Франція



Кінокомпанія: EuropaCorp, TF1 Films Production, Current Entertainment
Режисер: Корі Йен / Corey Yuen
Актори: Джейсон Стейтем / Jason Statham, Шу Кі / Shu Qi, Франсуа Берлінд / Francois Berleand, Метт Шульц / Matt Schulze, Даґ Ренд / Doug Rand, Джедд Тен / Jedd Tan, Рік Янґ / Rick Young та інші

Сюжет:
Колишній десантник Френк Мартін має непоганий бізнес — перевозить любі вантажі по французькому Середземномор'ю і робить свою работу швидко та якісно. Недостатку в клієнтах немає, він же завжди неухильно дотримується трьох правил: не змінювати умов договору, не питати жодних імен і ніколи не заглядати в багаж.
Але одного разу, перевозячи вантаж клієнта по імені Волл Стріт, Френк виявляє, що мішок ворушиться. Вперше за весь час Мартін порушує правило, заглядає всередину пакету і виявляє там красиву жінку, яка являється дочкою знатного китайського мафіозі…


Тривалість: 01:32:32
Якість:
Відео:
кодек:
розмір кадру: 1920x816
бітрейт: 11,7 Mб/с

Аудіо # 1:
мова: українська
переклад: багатоголосий закадровий
кодек: 2.0
бітрейт: 192 кб/с

Аудіо # 2:
мова: англійська
переклад: оригінал
кодек: 5.1
бітрейт: 384 кб/с

Джерело озвучення:


Субтитри:
мова: англійська
тип: програмні (м'які)
формат: *.srt
Info
General
Unique ID : 249566638954269507423750281231099287669 (0xBBC0C94B7EB0F300BDE3B7A9AF6CD875)
Complete name : H:\Майбутні релізи\The Transporter (2002) 1080p [Ukr Eng][Sub Eng][Hurtom].
Format :
Format version : Version 4 / Version 2
File size : 7.90 GiB
Duration : 1 h 32 min
Overall bit rate : 12.2 Mb/s
Movie name : The Transporter (2002) 1080p [Ukr Eng][Sub Eng][Hurtom]
Encoded date : UTC 2018-03-23 18:08:56
Writing application : v9.8.0 ('Kuglblids') 64bit
Writing library : libebml v1.3.4 + v1.4.5

Video
ID : 1
Format : AVC
Format/Info : Advanced Video Codec
Format profile : [email protected]
Format settings, CABAC : Yes
Format settings, ReFrames : 5 frames
Codec ID : V_MPEG4/ISO/AVC
Duration : 1 h 32 min
Bit rate : 11.7 Mb/s
Width : 1 920 pixels
Height : 816 pixels
Display aspect ratio : 2.35:1
Frame rate mode : Constant
Frame rate : 23.976 (24000/1001) FPS
Color space : YUV
Chroma subsampling : 4:2:0
Bit depth : 8 bits
Scan type : Progressive
Bits/(Pixel*Frame) : 0.310
Stream size : 7.53 GiB (95%)
Writing library : core 130 r2273 b3065e6
Encoding settings : cabac=1 / ref=5 / deblock=1:0:0 / analyse=0x3:0x133 / me=umh / subme=11 / psy=1 / psy_rd=1.00:0.00 / mixed_ref=1 / me_range=64 / chroma_me=1 / trellis=2 / 8x8dct=1 / cqm=0 / deadzone=21,11 / fast_pskip=0 / chroma_qp_offset=-2 / threads=9 / lookahead_threads=2 / sliced_threads=0 / nr=0 / decimate=1 / interlaced=0 / bluray_compat=0 / constrained_intra=0 / bframes=12 / b_pyramid=2 / b_adapt=2 / b_bias=0 / direct=3 / weightb=1 / open_gop=0 / weightp=2 / keyint=240 / keyint_min=23 / scenecut=40 / intra_refresh=0 / rc_lookahead=60 / rc=2pass / mbtree=1 / bitrate=11655 / ratetol=1.0 / qcomp=0.60 / qpmin=0 / qpmax=69 / qpstep=4 / cplxblur=20.0 / qblur=0.5 / ip_ratio=1.40 / aq=1:1.00
Language : English
Default : Yes
Forced : No

Audio #1
ID : 2
Format : AC-3
Format/Info : Audio Coding 3
Mode extension : CM (complete main)
Format settings, Endianness : Big
Codec ID : A_AC3
Duration : 1 h 32 min
Bit rate mode : Constant
Bit rate : 192 kb/s
Channel(s) : 2 channels
Channel positions : Front: L R
Sampling rate : 48.0 kHz
Frame rate : 31.250 FPS (1536 spf)
Bit depth : 16 bits
Compression mode : Lossy
Stream size : 127 MiB (2%)
Title : [UA-MVO]
Language : Ukrainian
Default : Yes
Forced : Yes

Audio #2
ID : 3
Format : AC-3
Format/Info : Audio Coding 3
Mode extension : CM (complete main)
Format settings, Endianness : Big
Codec ID : A_AC3
Duration : 1 h 32 min
Bit rate mode : Constant
Bit rate : 384 kb/s
Channel(s) : 6 channels
Channel positions : Front: L C R, Side: L R, LFE
Sampling rate : 48.0 kHz
Frame rate : 31.250 FPS (1536 spf)
Bit depth : 16 bits
Compression mode : Lossy
Stream size : 254 MiB (3%)
Language : English
Default : No
Forced : No

Text
ID : 4
Format : UTF-8
Codec ID : S_TEXT/UTF8
Codec ID/Info : UTF-8 Plain Text
Duration : 1 h 23 min
Bit rate : 31 b/s
Count of elements : 444
Stream size : 19.0 KiB (0%)
Language : English
Default : No
Forced : No

Menu
00:00:00.000 : :Chapter 01
00:05:00.000 : :Chapter 02
00:10:00.000 : :Chapter 03
00:15:00.000 : :Chapter 04
00:20:00.000 : :Chapter 05
00:25:00.000 : :Chapter 06
00:30:00.000 : :Chapter 07
00:35:00.000 : :Chapter 08
00:40:00.000 : :Chapter 09
00:45:00.000 : :Chapter 10
00:50:00.000 : :Chapter 11
00:55:00.000 : :Chapter 12
01:00:00.000 : :Chapter 13
01:05:00.000 : :Chapter 14
01:10:00.000 : :Chapter 15
01:15:00.000 : :Chapter 16
01:20:00.000 : :Chapter 17
01:25:00.000 : :Chapter 18
01:30:00.000 : :Chapter 19
Скріншоти



Джерело: &
Особиста оцінка: 8 - мені сподобалося



Срібний реліз (на рейтинг впливає 50% завантаженого)
 Трекер:    Зареєстрований   

Завантажити / скачати фільм українською



відео для новачків



 Зареєстрований:   2018-03-23 21:12
 Розмір:   7.9 GB 
 Оцінка фільму:   9.1/10 (Голосів: 18)
   
Інші релізи
   Перевізник / The Transporter (2002) AVC Ukr/Eng | Sub Eng staf777  5 / 2   2.13 GB   2019-06-27 17:32 
   Перевізник / The Transporter (2002) 1080p Ukr/Eng Слоник24  5 / 0   8.04 GB   2010-10-25 08:57 
igor911 
Модератор відео


З нами з: 18.01.08
Востаннє: 18.11.19
Повідомлень: 13664

2018-03-29 19:26  
фактично - повтор https://toloka.to/t17869
[email protected] 
VIP


З нами з: 24.03.17
Востаннє: 18.11.19
Повідомлень: 385

2019-01-06 15:41  
Класне кіно.
Ваш часовий пояс: GMT + 2 Години

Нова тема   Відповісти