Три білборди під Еббінґом, Міссурі / Three Billboards Outside Ebbing, Missouri (2017) UHD Remux 2160p HDR 2xUkr/Eng | Sub Ukr/Eng

Нові коментарі

Нова тема   Відповісти
Автор Повідомлення
Devil_my_cry 
Частий відвідувач


З нами з: 26.06.10
Востаннє: 10.10.18
Повідомлень: 43

2018-03-23 00:59  
Три білборди під Еббінґом, Міссурі / Three Billboards Outside Ebbing, Missouri (2017) UHD Remux 2160p HDR 2xUkr/Eng | Sub Ukr/Eng

Три білборди під Еббінґом, Міссурі / Three Billboards Outside Ebbing, Missouri (2017) UHD Remux 2160p HDR 2xUkr/Eng | Sub Ukr/Eng


Жанр: драма, кримінальний
Країна: Велика Британія, США



Кінокомпанія: Blueprint Pictures, Film 4, Fox Searchlight Pictures
Режисер: Мартін Макдонаг
Актори: Френсіс Макдорманд, Вуді Гаррельсон, Сем Роквелл, Джон Говкс, Пітер Дінклейдж, Лукас Геджес, Кетрін Ньютон, Самара Вівінґ, Калеб Лендрі Джонс, Еббі Корніш

Сюжет:
У центрі сюжету жінка, яка вийшла на стежку війни з поліцією міста, що відмовилася розслідувати вбивство її дочки.


Тривалість: 01:55:21
Якість: 4K UltraHD Remux 2160p
Відео:
кодек: H.265 (HEVC)
розмір кадру: 3840x2160
бітрейт: 53,3 Мб/с
бітова глибина: 10 біт
кольоровий простір: BT.2020 (HDR)

Аудіо # 1:
мова: українська
переклад: професійний дубльований
кодек: 5.1
бітрейт: 448 Кб/с

Аудіо # 2:
мова: українська
переклад: багатоголосий закадровий | студія НеЗупиняй Продакшн
кодек: -HD 5.1
бітрейт: 3 610 Кб/с

Аудіо # 3:
мова: англійська
переклад: оригінал
кодек: -HD 5.1
бітрейт: 3 625 Кб/с

Субтитри:
мова: українська
тип: програмні (м'які)
формат: *.srt

Субтитри (Full, SHD, SHD-Colored):
мова: англійська
тип: програмні (м'які)
формат: *.srt
Info
Video
ID : 1
Format : HEVC
Format/Info : High Efficiency Video Coding
Commercial name : HDR10
Format profile : Main [email protected]@High
Codec ID : V_MPEGH/ISO/HEVC
Duration : 1 h 55 min
Bit rate : 53.3 Mb/s
Width : 3 840 pixels
Height : 2 160 pixels
Display aspect ratio : 16:9
Frame rate mode : Constant
Frame rate : 23.976 (24000/1001) FPS
Color space : YUV
Chroma subsampling : 4:2:0 (Type 2)
Bit depth : 10 bits
Bits/(Pixel*Frame) : 0.268
Stream size : 43.0 GiB (87%)
Title : Three.Billboards.Outside.Ebbing.Missouri.2017.Bluray.REMUX.HDR
Language : English
Default : Yes
Forced : No
Color range : Limited
Color primaries : BT.2020
Transfer characteristics : PQ
Matrix coefficients : BT.2020 non-constant
Mastering display color pri : BT.709
Mastering display luminance : min: 0.0050 cd/m2, max: 1000 cd/m2

Audio #1
ID : 2
Format : AC-3
Format/Info : Audio Coding 3
Codec ID : A_AC3
Duration : 1 h 55 min
Bit rate mode : Constant
Bit rate : 448 kb/s
Channel(s) : 6 channels
Channel positions : Front: L C R, Side: L R, LFE
Sampling rate : 48.0 kHz
Frame rate : 31.250 FPS (1536 SPF)
Bit depth : 16 bits
Compression mode : Lossy
Delay relative to video : 5 ms
Stream size : 370 MiB (1%)
Title : | Dub [License]
Language : Ukrainian
Service kind : Complete Main
Default : No
Forced : No

Audio #2
ID : 3
Format :
Format/Info : Digital Theater Systems
Format profile : MA / Core
Codec ID : A_DTS
Duration : 1 h 55 min
Bit rate mode : Variable / Constant
Bit rate : 3 610 kb/s / 1 509 kb/s
Channel(s) : 6 channels
Channel positions : Front: L C R, Side: L R, LFE
Sampling rate : 48.0 kHz
Frame rate : 93.750 FPS (512 SPF)
Bit depth : 24 bits
Compression mode : Lossless / Lossy
Stream size : 2.91 GiB (6%)
Title : | MVO, DontStopProd |
Language : Ukrainian
Default : No
Forced : No

Audio #3
ID : 4
Format :
Format/Info : Digital Theater Systems
Format profile : MA / Core
Codec ID : A_DTS
Duration : 1 h 55 min
Bit rate mode : Variable / Constant
Bit rate : 3 625 kb/s / 1 509 kb/s
Channel(s) : 6 channels
Channel positions : Front: L C R, Side: L R, LFE
Sampling rate : 48.0 kHz
Frame rate : 93.750 FPS (512 SPF)
Bit depth : 24 bits
Compression mode : Lossless / Lossy
Stream size : 2.92 GiB (6%)
Title : | Original |
Language : English
Default : No
Forced : No

Text #1
ID : 5
Format : UTF-8
Codec ID : S_TEXT/UTF8
Codec ID/Info : UTF-8 Plain Text
Duration : 1 h 53 min
Bit rate : 80 b/s
Count of elements : 1157
Stream size : 66.7 KiB (0%)
Title : Full
Language : Ukrainian
Default : No
Forced : No

Text #2
ID : 6
Format : UTF-8
Codec ID : S_TEXT/UTF8
Codec ID/Info : UTF-8 Plain Text
Duration : 1 h 46 min
Bit rate : 62 b/s
Count of elements : 1450
Stream size : 48.8 KiB (0%)
Title : Full
Language : English
Default : No
Forced : No

Text #3
ID : 7
Format : UTF-8
Codec ID : S_TEXT/UTF8
Codec ID/Info : UTF-8 Plain Text
Duration : 1 h 49 min
Bit rate : 60 b/s
Count of elements : 1657
Stream size : 48.6 KiB (0%)
Title : SDH
Language : English
Default : No
Forced : No

Text #4
ID : 8
Format : UTF-8
Codec ID : S_TEXT/UTF8
Codec ID/Info : UTF-8 Plain Text
Duration : 1 h 49 min
Bit rate : 68 b/s
Count of elements : 1657
Stream size : 54.9 KiB (0%)
Title : SDH Colored
Language : English
Default : No
Forced : No
Скріншоти





Джерело:
Особиста оцінка: 10 - без зайвих вагань рекомендую всім!


Авторський реліз (завантажувати можна без реєстрації)
 Трекер:    Зареєстрований   

Завантажити / скачати фільм українською



відео для новачків



 Зареєстрований:   2018-03-23 00:59
 Розмір:   49.15 GB 
 Оцінка фільму:   8.9/10 (Голосів: 12)
   
kkk111 
Новенький


З нами з: 12.11.12
Востаннє: 17.05.19
Повідомлень: 4

2018-06-14 00:57  
Класне кіно!
Ваш часовий пояс: GMT + 2 Години

Нова тема   Відповісти