Вбити за лайк / Tragedy Girls (2017) 720р Ukr/Eng | Sub Eng

Нові коментарі

Нова тема   Відповісти
Автор Повідомлення
staf777 
Відео Гуртом - підтримка та поширення
Відео Гуртом - підтримка та поширення


З нами з: 16.11.16
Востаннє: 25.09.20
Повідомлень: 4039

2018-03-22 18:50  
Вбити за лайк / Tragedy Girls (2017) 720р Ukr/Eng | Sub Eng

Вбити за лайк / Tragedy Girls (2017) 720р Ukr/Eng | Sub Eng


Жанр: жахи, комедія
Країна: США



Кінокомпанія: It's The Comeback Kids, New Artist Pictures, Ardor Pictures
Режисер: Тайлер МакІнтайр
Актори: Джош Гатчерсон, Бріанна Хілдебранд, Кевін Дюран, Джек Куейд, Ніккі Вілан, Александра Шипп, Крейг Робінсон, Остін Абрамс, Розалінд Чао, Еліз Ніл

Сюжет:
Дві подружки-старшокласниці одержимі мрією стати зірками соціальних мереж. Але, як відомо, хорошими справами прославитися не можна. Тому вони заводять блог «Кошмарні дівчата», в якому смачно коментують трагедії та нещасні випадки, що відбуваються в їхньому містечку. Кількість фоловерів зростає, але для нових лайків потрібні нові криваві репортажі. Амбітні дівчата, відчуваючи гостру нестачу матеріалу, приймаються вбивати всіх, хто заважає їм по життю, поєднуючи приємне» з «корисним»...


Тривалість: 01:38:19
Якість:
Відео:
кодек:
розмір кадру: 1280x536
бітрейт: 4386 кб/с

Аудіо # 1:
мова: українська
переклад: професійний дубльований | студія Tretyakoff production
кодек: 5.1
бітрейт: 384 кб/с

Аудіо # 2:
мова: англійська
переклад: оригінал
кодек: 5.1
бітрейт: 384 кб/с

Субтитри # 1-2:
мова: англійська
тип: програмні (м'які)
формат: *.srt
Info
General
Unique ID : 223793661065886111454974860152937396432 (0xA85D1760D18C5582B7E46E2EA23C38D0)
Complete name : H:\Майбутні релізи\Tragedy Girls (2017) 720р [Ukr Eng][Sub Eng][Hurtom].
Format :
Format version : Version 4 / Version 2
File size : 3.54 GiB
Duration : 1 h 38 min
Overall bit rate : 5 154 kb/s
Movie name : Tragedy Girls (2017) 720р [Ukr Eng][Sub Eng][Hurtom]
Encoded date : UTC 2018-03-22 14:36:41
Writing application : v9.8.0 ('Kuglblids') 64bit
Writing library : libebml v1.3.4 + v1.4.5

Video
ID : 1
Format : AVC
Format/Info : Advanced Video Codec
Format profile : [email protected]
Format settings, CABAC : Yes
Format settings, ReFrames : 5 frames
Codec ID : V_MPEG4/ISO/AVC
Duration : 1 h 38 min
Bit rate : 4 386 kb/s
Width : 1 280 pixels
Height : 536 pixels
Display aspect ratio : 2.40:1
Frame rate mode : Constant
Frame rate : 23.976 (24000/1001) FPS
Color space : YUV
Chroma subsampling : 4:2:0
Bit depth : 8 bits
Scan type : Progressive
Bits/(Pixel*Frame) : 0.267
Stream size : 3.01 GiB (85%)
Writing library : core 155 r2901 7d0ff22
Encoding settings : cabac=1 / ref=5 / deblock=1:-3:-3 / analyse=0x3:0x113 / me=umh / subme=8 / psy=1 / psy_rd=1.00:0.00 / mixed_ref=1 / me_range=24 / chroma_me=1 / trellis=2 / 8x8dct=1 / cqm=0 / deadzone=21,11 / fast_pskip=1 / chroma_qp_offset=-2 / threads=17 / lookahead_threads=2 / sliced_threads=0 / nr=0 / decimate=1 / interlaced=0 / bluray_compat=0 / constrained_intra=0 / bframes=3 / b_pyramid=2 / b_adapt=2 / b_bias=0 / direct=3 / weightb=1 / open_gop=0 / weightp=2 / keyint=240 / keyint_min=24 / scenecut=40 / intra_refresh=0 / rc_lookahead=50 / rc=2pass / mbtree=1 / bitrate=4386 / ratetol=1.0 / qcomp=0.60 / qpmin=0 / qpmax=69 / qpstep=4 / cplxblur=20.0 / qblur=0.5 / ip_ratio=1.40 / aq=3:0.80
Default : Yes
Forced : No

Audio #1
ID : 2
Format : AC-3
Format/Info : Audio Coding 3
Mode extension : CM (complete main)
Format settings, Endianness : Big
Codec ID : A_AC3
Duration : 1 h 38 min
Bit rate mode : Constant
Bit rate : 384 kb/s
Channel(s) : 6 channels
Channel positions : Front: L C R, Side: L R, LFE
Sampling rate : 48.0 kHz
Frame rate : 31.250 FPS (1536 spf)
Bit depth : 16 bits
Compression mode : Lossy
Stream size : 270 MiB (7%)
Title : [UA-DUB-iTunes]
Language : Ukrainian
Default : Yes
Forced : Yes

Audio #2
ID : 3
Format : AC-3
Format/Info : Audio Coding 3
Mode extension : CM (complete main)
Format settings, Endianness : Big
Codec ID : A_AC3
Duration : 1 h 38 min
Bit rate mode : Constant
Bit rate : 384 kb/s
Channel(s) : 6 channels
Channel positions : Front: L C R, Side: L R, LFE
Sampling rate : 48.0 kHz
Frame rate : 31.250 FPS (1536 spf)
Bit depth : 16 bits
Compression mode : Lossy
Stream size : 270 MiB (7%)
Language : English
Default : No
Forced : No

Text #1
ID : 4
Format : UTF-8
Codec ID : S_TEXT/UTF8
Codec ID/Info : UTF-8 Plain Text
Duration : 1 h 38 min
Bit rate : 72 b/s
Count of elements : 1618
Stream size : 52.4 KiB (0%)
Language : English
Default : No
Forced : No

Text #2
ID : 5
Format : UTF-8
Codec ID : S_TEXT/UTF8
Codec ID/Info : UTF-8 Plain Text
Duration : 1 h 38 min
Bit rate : 83 b/s
Count of elements : 2044
Stream size : 60.0 KiB (0%)
Title : SDH
Language : English
Default : No
Forced : No

Menu
00:00:00.000 : en:00:00:00.000
00:03:00.263 : en:00:03:00.263
00:06:00.527 : en:00:06:00.527
00:09:00.790 : en:00:09:00.790
00:12:01.054 : en:00:12:01.054
00:15:01.317 : en:00:15:01.317
00:18:01.581 : en:00:18:01.581
00:21:01.844 : en:00:21:01.844
00:24:02.107 : en:00:24:02.107
00:27:02.371 : en:00:27:02.371
00:30:02.634 : en:00:30:02.634
00:33:02.898 : en:00:33:02.898
00:36:03.161 : en:00:36:03.161
00:39:03.424 : en:00:39:03.424
00:42:03.688 : en:00:42:03.688
00:45:03.951 : en:00:45:03.951
00:48:04.215 : en:00:48:04.215
00:51:04.478 : en:00:51:04.478
00:54:04.742 : en:00:54:04.742
00:57:05.005 : en:00:57:05.005
01:00:05.268 : en:01:00:05.268
01:03:05.532 : en:01:03:05.532
01:06:05.795 : en:01:06:05.795
01:09:06.059 : en:01:09:06.059
01:12:06.322 : en:01:12:06.322
01:15:06.585 : en:01:15:06.585
01:18:06.849 : en:01:18:06.849
01:21:07.112 : en:01:21:07.112
01:24:07.376 : en:01:24:07.376
01:27:07.639 : en:01:27:07.639
01:30:07.903 : en:01:30:07.903
01:33:08.166 : en:01:33:08.166
01:36:08.429 : en:01:36:08.429
Скріншоти




Джерело: &
Особиста оцінка: 8 - мені сподобалося
Вбити за лайк / Tragedy Girls (2017) 720р Ukr/Eng | Sub Eng Вбити за лайк / Tragedy Girls (2017) 720р Ukr/Eng | Sub Eng


 Трекер:    Зареєстрований   

Завантажити / скачати фільм українською



відео для новачків



 Зареєстрований:   2018-03-22 18:50
 Розмір:   3.54 GB 
 Оцінка фільму:   7.1/10 (Голосів: 14)
   
Інші релізи
   Вбити за лайк / Tragedy Girls (2017) AVC Ukr/Eng | Sub Eng 11FrYkT  2 / 0   2.18 GB   2019-01-13 10:40 
   Вбити за лайк / Tragedy Girls (2017) 1080p Ukr/Eng | Sub Eng 11FrYkT  1 / 0   6.81 GB   2019-01-12 19:45 
   Вбити за лайк / Tragedy Girls (2017) Ukr | Sub Eng НТН  1 / 0   1.46 GB   2018-03-11 17:42 
casper101 
VIP


З нами з: 03.12.09
Востаннє: 25.09.20
Повідомлень: 449

2018-03-23 00:06  
Ну нарешті.дочекався.
boombyte 
Поважний учасник


З нами з: 12.04.14
Востаннє: 25.09.20
Повідомлень: 165

2018-04-30 22:27  
Своєрідне таке кіно...
Закінчення не сподобалось. Точніше--на любителя. А так фільм доволі норм)

Ваш часовий пояс: GMT + 2 Години

Нова тема   Відповісти