Пекло / Sunshine (2007) mini 1080p H.265 Ukr/Eng

Нові коментарі

Нова тема   Відповісти
Автор Повідомлення
igor302 
Свій


З нами з: 27.10.11
Востаннє: 15.11.18
Повідомлень: 108

2018-03-22 15:35  
Пекло / Sunshine (2007) mini 1080p H.265 Ukr/Eng

Пекло / Sunshine (2007) mini 1080p H.265 Ukr/Eng

Жанр: фантастика, трилер, пригодницький
Країна: Великобританія



Кінокомпанія: DNA Films, Ingenious Film Partners, Moving Picture Company (MPC)
Режисер: Денні Бойл (Danny Boyle)
Актори: Кілліан Мерфі (Cillian Murphy), Кріс Еванс (Chris Evans), Мішель Єо (Michelle Yeoh), Роуз Бірн (Rose Byrne), Трой Ґаріті (Troy Garity), Гіроюкі Санада (Hiroyuki Sanada), Бенедикт Вонґ (Benedict Wong) та інші.

Сюжет:
2057 рік. Сонце гине, і людство постає перед перспективою вимирання. Остання надія планети Земля пов'язана з "Ікаром-2" - космічним кораблем, екіпаж якого складається з восьми чоловіків і жінок на чолі з капітаном Канедою. Їхня місія - доставити ядерний заряд, який має знов розпалити згасаюче Сонце. Під час подорожі, перебуваючи у далекому космосі, без будь-якого радіоконтакту із Землею, екіпаж чує слабкі позивні з космічного корабля "Ікар-1", який зник, виконуючи сім років тому ту саму місію, що й "Ікар-2". Страшна катастрофа ставить місію в дуже небезпечну й ризиковану ситуацію, і скоро команда виявляє, що мусить боротися не тільки за свої власні життя та душевну рівновагу, а й за майбутнє всіх людей ...


Тривалість: 01:47:27
Якість: HEVC
Відео:
кодек: H.265 (HEVC)
розмір кадру: 1920 х 806
бітрейт: 7 518 кб/с
бітова глибина: 10 біт
Увага! Перед завантаженням переконайтесь, що ваш пристрій відтворення (та/або ПЗ) підтримують H.265 (HEVC) та 10 біт

Аудіо # 1:
мова: українська
переклад: багатоголосий закадровий
кодек: 2.0
бітрейт: 192 кб/с

Аудіо # 2:
мова: англійська
переклад: оригінал
кодек: 5.1
бітрейт: 448 кб/с
Info
General
Unique ID : 94025045399640147290387581830775806282 (0x46BC90A6D6A892E7FEEB06C8EDF1994A)
Complete name : D:\Video\Tol\Sunshine (2007) [ukr,eng] 1080p H.265 [Hurtom].
Format :
Format version : Version 4 / Version 2
File size : 6.13 GiB
Duration : 1 h 47 min
Overall bit rate : 8 161 kb/s
Movie name : Sunshine (2007)
Encoded date : UTC 2018-03-22 10:43:33
Writing application : v20.0.0 ('I Am The Sun') 64-bit
Writing library : libebml v1.3.5 + v1.4.8

Video
ID : 1
Format : HEVC
Format/Info : High Efficiency Video Coding
Format profile : Main [email protected]@High
Codec ID : V_MPEGH/ISO/HEVC
Duration : 1 h 47 min
Bit rate : 7 518 kb/s
Width : 1 920 pixels
Height : 806 pixels
Display aspect ratio : 2.40:1
Frame rate mode : Constant
Frame rate : 23.976 (24000/1001) FPS
Color space : YUV
Chroma subsampling : 4:2:0
Bit depth : 10 bits
Bits/(Pixel*Frame) : 0.203
Stream size : 5.64 GiB (92%)
Title : HEVC.CLUB
Writing library : x265 2.5+20-0967d0add97e:[Windows][GCC 7.2.0][64 bit] 10bit
Encoding settings : cpuid=1173503 / frame-threads=3 / numa-pools=8 / wpp / pmode / no-pme / no-psnr / ssim / log-level=2 / input-csp=1 / input-res=1920x806 / interlace=0 / total-frames=0 / level-idc=41 / high-tier=1 / uhd-bd=0 / ref=6 / no-allow-non-conformance / repeat-headers / annexb / no-aud / no-hrd / info / hash=0 / no-temporal-layers / open-gop / min-keyint=23 / keyint=250 / bframes=10 / b-adapt=2 / b-pyramid / bframe-bias=0 / rc-lookahead=60 / lookahead-slices=1 / scenecut=40 / no-intra-refresh / ctu=64 / min-cu-size=8 / no-rect / no-amp / max-tu-size=32 / tu-inter-depth=3 / tu-intra-depth=3 / limit-tu=0 / rdoq-level=1 / dynamic-rd=2.00 / no-ssim-rd / signhide / no-tskip / nr-intra=0 / nr-inter=0 / no-constrained-intra / no-strong-intra-smoothing / max-merge=2 / limit-refs=0 / no-limit-modes / me=1 / subme=7 / merange=64 / temporal-mvp / weightp / weightb / no-analyze-src-pics / deblock=-3:-3 / no-sao / no-sao-non-deblock / rd=4 / no-early-skip / no-rskip / no-fast-intra / no-tskip-fast / no-cu-lossless / no-b-intra / no-splitrd-skip / rdpenalty=0 / psy-rd=1.75 / psy-rdoq=2.50 / no-rd-refine / analysis-reuse-mode=0 / no-lossless / cbqpoffs=0 / crqpoffs=0 / rc=crf / crf=22.0 / qcomp=0.70 / qpstep=6 / stats-write=0 / stats-read=0 / vbv-maxrate=50000 / vbv-bufsize=50000 / vbv-init=0.9 / crf-max=0.0 / crf-min=0.0 / ipratio=1.50 / pbratio=1.00 / aq-mode=1 / aq-strength=0.10 / no-cutree / zone-count=0 / no-strict-cbr / qg-size=32 / no-rc-grain / qpmax=69 / qpmin=0 / no-const-vbv / sar=1 / overscan=0 / videoformat=5 / range=0 / colorprim=2 / transfer=2 / colormatrix=2 / chromaloc=0 / display-window=0 / max-cll=0,0 / min-luma=0 / max-luma=1023 / log2-max-poc-lsb=8 / vui-timing-info / vui-hrd-info / slices=1 / opt-qp-pps / opt-ref-list-length-pps / no-multi-pass-opt-rps / scenecut-bias=0.05 / no-opt-cu-delta-qp / aq-motion / no-hdr / no-hdr-opt / no-dhdr10-opt / analysis-reuse-level=5 / scale-factor=0 / refine-intra=0 / refine-inter=0 / refine-mv=0 / no-limit-sao / ctu-info=0
Default : Yes
Forced : Yes

Audio #1
ID : 2
Format : AC-3
Format/Info : Audio Coding 3
Codec ID : A_AC3
Duration : 1 h 47 min
Bit rate mode : Constant
Bit rate : 192 kb/s
Channel(s) : 2 channels
Channel positions : Front: L R
Sampling rate : 48.0 kHz
Frame rate : 31.250 FPS (1536 SPF)
Bit depth : 16 bits
Compression mode : Lossy
Stream size : 148 MiB (2%)
Title : 1+1
Language : Ukrainian
Service kind : Complete Main
Default : Yes
Forced : No

Audio #2
ID : 3
Format : AC-3
Format/Info : Audio Coding 3
Codec ID : A_AC3
Duration : 1 h 47 min
Bit rate mode : Constant
Bit rate : 448 kb/s
Channel(s) : 6 channels
Channel positions : Front: L C R, Side: L R, LFE
Sampling rate : 48.0 kHz
Frame rate : 31.250 FPS (1536 SPF)
Bit depth : 16 bits
Compression mode : Lossy
Stream size : 344 MiB (5%)
Language : English
Service kind : Complete Main
Default : No
Forced : No

Menu
00:00:00.000 : :Dying Sun
00:04:08.331 : :Final Message
00:08:11.574 : :Psych Eval
00:12:42.261 : :Risk Assessments
00:21:24.408 : :Accuracy Unknown
00:24:58.246 : :New Trajectory
00:35:16.239 : :First Priority
00:39:16.312 : :Full Sunlight
00:47:03.946 : :Icarus I
00:52:58.341 : :Abandoned Mission
00:56:26.299 : :The Airlock
01:04:06.551 : :We Love You
01:05:41.854 : :Crew Vote
01:11:23.946 : :Identify Yourself
01:17:06.663 : :Sabotage
01:24:37.989 : :Manual Override
01:30:37.598 : :Payload
01:34:22.365 : :Into the Sun
01:39:33.467 : :A Beautiful Day
01:40:53.422 : :End Titles/Avenue of Hope
Скріншоти



Джерело:
Особиста оцінка: 0 - не дивився


 Трекер:    Зареєстрований   

Завантажити / скачати фільм українською



відео для новачків



 Зареєстрований:   2018-03-22 15:35
 Розмір:   6.13 GB 
 Оцінка фільму:   8.9/10 (Голосів: 11)
   
Інші релізи
   Пекло / Sunshine (2007) patriot2305  6 / 0   1.32 GB   2013-04-09 19:04 
   Пекло / Sunshine (2007) 1080p Ukr/Eng | Sub Ukr/Eng Віктор Багряний  5 / 0   9.37 GB   2013-02-10 17:12 
   Пекло / Sunshine (2007) Ukr/Eng robotron005  6 / 0   2.04 GB   2013-02-10 14:13 
   Пекло / Sunshine (2007) 720p Eng | Sub Ukr, Eng pohgejib  0 / 0   3.79 GB   2011-04-27 17:14 
VINRARUS 
Поважний учасник


З нами з: 16.11.11
Востаннє: 14.04.19
Повідомлень: 203

2018-03-23 19:17  
Мабуть найкраща наукова фантастика з усіх!
kocyxuh 
Новенький


З нами з: 05.12.16
Востаннє: 19.04.19
Повідомлень: 4

2018-03-25 00:05  
Хто дивився - бачив 25 кадр, коли на iнший корабель заходили?
VINRARUS 
Поважний учасник


З нами з: 16.11.11
Востаннє: 14.04.19
Повідомлень: 203

2018-03-25 11:17  
kocyxuh написано:
Хто дивився - бачив 25 кадр, коли на iнший корабель заходили?

Так, то така фішка режисера.

kocyxuh 
Новенький


З нами з: 05.12.16
Востаннє: 19.04.19
Повідомлень: 4

2018-03-26 00:00  
VINRARUS
Гарний хiд, в мене аж мурахи вiд жутi були, але я шукаю без цього кадру.

Авторовi подяка за гарне кiно! Гарну наукову фантастику рiдко зустрнеш!

vash1 
Поважний учасник


З нами з: 16.03.16
Востаннє: 19.04.19
Повідомлень: 186

2018-05-18 11:17  
А чому міні?
Ваш часовий пояс: GMT + 2 Години

Нова тема   Відповісти