Запах жінки / Scent of a Woman (1992) 1080p H.265 2Ukr/Eng | Sub Eng

Нові коментарі

Нова тема   Відповісти
Автор Повідомлення
igor302 
Свій


З нами з: 27.10.11
Востаннє: 15.11.18
Повідомлень: 108

2018-03-22 15:17  
Запах жінки / Scent of a Woman (1992) 1080p H.265 2Ukr/Eng | Sub Eng

Запах жінки / Scent of a Woman (1992) 1080p H.265 2Ukr/Eng | Sub Eng

Жанр: Драма
Країна: США



Кінокомпанія: City Light Films | Universal Pictures
Режисер: Мартін Брест
Актори: Аль Пачіно, Кріс О `Доннелл, Джеймс Ребхорн, Габріель Анвар, Філіп Сеймур Хоффман, Річард Венчур, Бредлі Уітфорд, Рошелль Олівер, Маргарет Еджінтон, Том Рііс Фаррелл

Сюжет:
Настав День подяки і полковник розвідки, у відставці, Френк Слейд вирішує відсвяткувати свято, «побалувати» себе поїздкою в Нью-Йорк. Френк хоче провести свій останній «коронний вихід» по вищому розряду: вишуканий готель, шикарний лімузин, дорога випивка та жінки приголомшливої краси.

Є лише дві проблемки. Перша: Френк сліпий. І друга: родичі полковника вирішують найняти за невелику суму наглядача, студента престижного коледжу по імені Чарлі Сіммз. Останнє, що було потрібно в поїздці полковнику Слейду - так це «зелений» юнак Чарлі. Але сталося так, що подорож цих двох, не схожих один на одного людей, змінило їх життя назавжди.


Тривалість: 02:36:24
Якість:
Відео:
кодек: H.265 (HEVC)
розмір кадру: 1920 х 1040
бітрейт: 5 694 кб/с
бітова глибина: 8 біт
Увага! Перед завантаженням переконайтесь, що ваш пристрій відтворення (та/або ПЗ) підтримують H.265 (HEVC) та 10 біт

Аудіо # 1:
мова: українська
переклад: багатоголосий закадровий
кодек: 5.1
бітрейт: 384 кб/с

Аудіо # 2:
мова: українська
переклад: багатоголосий закадровий
кодек: 2.0
бітрейт: 192 кб/с

Аудіо # 3:
мова: англійська
переклад: оригінал
кодек: 5.1
бітрейт: 448 кб/с

Субтитри:
мова: англійська
тип: програмні (м'які)
формат: *.srt
Info
General
Unique ID : 206945447774144881239059224069417674603 (0x9BB03E54331DC2ACB42978465EC7276B)
Complete name : D:\Video\Scent of a Woman (1992) 1080p H.265 [2UKR_ENG], Sub [ENG] [Hurtom].
Format :
Format version : Version 4 / Version 2
File size : 7.34 GiB
Duration : 2 h 36 min
Overall bit rate : 6 720 kb/s
Movie name : Запах жінки / Scent of a Woman (1992) 1080p H.265
Encoded date : UTC 2018-04-13 13:10:42
Writing application : v22.0.0 ('At The End Of The World') 64-bit
Writing library : libebml v1.3.5 + v1.4.8

Video
ID : 1
Format : HEVC
Format/Info : High Efficiency Video Coding
Format profile : [email protected]@High
Codec ID : V_MPEGH/ISO/HEVC
Duration : 2 h 36 min
Bit rate : 5 694 kb/s
Width : 1 920 pixels
Height : 1 040 pixels
Display aspect ratio : 1.85:1
Frame rate mode : Constant
Frame rate : 23.976 (24000/1001) FPS
Color space : YUV
Chroma subsampling : 4:2:0
Bit depth : 8 bits
Bits/(Pixel*Frame) : 0.119
Stream size : 6.22 GiB (85%)
Title : Запах жінки / Scent of a Woman (1992) 1080p
Writing library : x265 2.5+6-d11482e5fedb:[Windows][GCC 7.1.0][64 bit] 8bit
Encoding settings : cpuid=1050111 / frame-threads=5 / numa-pools=4 / wpp / no-pmode / no-pme / no-psnr / no-ssim / log-level=3 / input-csp=1 / input-res=1920x1040 / interlace=0 / total-frames=0 / level-idc=41 / high-tier=1 / uhd-bd=0 / ref=4 / no-allow-non-conformance / no-repeat-headers / annexb / no-aud / no-hrd / info / hash=0 / no-temporal-layers / open-gop / min-keyint=23 / keyint=250 / bframes=10 / b-adapt=2 / b-pyramid / bframe-bias=0 / rc-lookahead=40 / lookahead-slices=6 / scenecut=40 / no-intra-refresh / ctu=64 / min-cu-size=8 / no-rect / no-amp / max-tu-size=32 / tu-inter-depth=1 / tu-intra-depth=1 / limit-tu=0 / rdoq-level=0 / dynamic-rd=0.00 / no-ssim-rd / signhide / no-tskip / nr-intra=0 / nr-inter=0 / no-constrained-intra / strong-intra-smoothing / max-merge=2 / limit-refs=3 / no-limit-modes / me=3 / subme=4 / merange=57 / temporal-mvp / weightp / weightb / no-analyze-src-pics / deblock=-3:-3 / sao / no-sao-non-deblock / rd=3 / no-early-skip / rskip / no-fast-intra / no-tskip-fast / no-cu-lossless / no-b-intra / rdpenalty=0 / psy-rd=4.00 / psy-rdoq=0.00 / no-rd-refine / analysis-reuse-mode=0 / no-lossless / cbqpoffs=0 / crqpoffs=0 / rc=crf / crf=19.0 / qcomp=0.60 / qpstep=4 / stats-write=0 / stats-read=0 / vbv-maxrate=50000 / vbv-bufsize=35714 / vbv-init=0.9 / crf-max=30.0 / crf-min=0.0 / ipratio=1.40 / pbratio=1.30 / aq-mode=1 / aq-strength=0.00 / cutree / zone-count=0 / no-strict-cbr / qg-size=32 / no-rc-grain / qpmax=69 / qpmin=0 / no-const-vbv / sar=1 / overscan=0 / videoformat=5 / range=0 / colorprim=2 / transfer=2 / colormatrix=2 / chromaloc=0 / display-window=0 / max-cll=0,0 / min-luma=0 / max-luma=255 / log2-max-poc-lsb=8 / vui-timing-info / vui-hrd-info / slices=1 / opt-qp-pps / opt-ref-list-length-pps / no-multi-pass-opt-rps / scenecut-bias=0.05 / no-opt-cu-delta-qp / no-aq-motion / no-hdr / no-hdr-opt / no-dhdr10-opt / analysis-reuse-level=5 / scale-factor=0 / refine-intra=0 / refine-inter=0 / refine-mv=0 / no-limit-sao / ctu-info=0
Language : English
Default : Yes
Forced : No

Audio #1
ID : 2
Format : AC-3
Format/Info : Audio Coding 3
Codec ID : A_AC3
Duration : 2 h 36 min
Bit rate mode : Constant
Bit rate : 384 kb/s
Channel(s) : 6 channels
Channel positions : Front: L C R, Side: L R, LFE
Sampling rate : 48.0 kHz
Frame rate : 31.250 FPS (1536 SPF)
Bit depth : 16 bits
Compression mode : Lossy
Delay relative to video : 16 ms
Stream size : 429 MiB (6%)
Title : 5.1 @ 384 kbps | Новий канал
Language : Ukrainian
Service kind : Complete Main
Default : Yes
Forced : Yes

Audio #2
ID : 3
Format : AC-3
Format/Info : Audio Coding 3
Codec ID : A_AC3
Duration : 2 h 36 min
Bit rate mode : Constant
Bit rate : 192 kb/s
Channel(s) : 2 channels
Channel positions : Front: L R
Sampling rate : 48.0 kHz
Frame rate : 31.250 FPS (1536 SPF)
Bit depth : 16 bits
Compression mode : Lossy
Stream size : 215 MiB (3%)
Title : 2.0 @ 192 kbps | Канал Україна
Language : Ukrainian
Service kind : Complete Main
Default : No
Forced : No

Audio #3
ID : 4
Format : AC-3
Format/Info : Audio Coding 3
Codec ID : A_AC3
Duration : 2 h 36 min
Bit rate mode : Constant
Bit rate : 448 kb/s
Channel(s) : 6 channels
Channel positions : Front: L C R, Side: L R, LFE
Sampling rate : 48.0 kHz
Frame rate : 31.250 FPS (1536 SPF)
Bit depth : 16 bits
Compression mode : Lossy
Stream size : 501 MiB (7%)
Language : English
Service kind : Complete Main
Default : No
Forced : No

Text
ID : 5
Format : UTF-8
Codec ID : S_TEXT/UTF8
Codec ID/Info : UTF-8 Plain Text
Duration : 2 h 30 min
Bit rate : 63 b/s
Count of elements : 2388
Stream size : 69.7 KiB (0%)
Language : English
Default : No
Forced : No
Скріншоти



Джерело:
Особиста оцінка: 0 - не дивився


Срібний реліз (на рейтинг впливає 50% завантаженого)
 Трекер:    Зареєстрований   

Завантажити / скачати фільм українською



відео для новачків



 Зареєстрований:   2018-04-13 16:45
 Розмір:   7.34 GB 
 Оцінка фільму:   9.8/10 (Голосів: 8)
   
Інші релізи
   Запах жінки / Scent of a Woman (1992) Remux 1080p Ukr/Eng | Sub Eng Dr.S  3 / 0   33.49 GB   2018-01-23 00:29 
   Запах жінки / Scent of a Woman (1992) 2хUkr patriot2305  19 / 3   2.6 GB   2013-08-09 23:39 
   Запах жінки / Scent of a Woman (1992) 720p Ukr/Eng | Sub Eng xfsthe  5 / 0   9.16 GB   2012-04-25 13:21 
askold7 
Свій


З нами з: 03.04.11
Востаннє: 19.05.19
Повідомлень: 60

2018-03-22 17:38  
Цікаво... Хоффман, Уітфорд - чізда пад уззкіх. Чи не так пане (чи ґаспадін) Іґор 302?
11FrYkT 
Модератор відео


З нами з: 20.02.11
Востаннє: 20.05.19
Повідомлень: 5904

2018-04-10 18:05  
igor302 , ще є доріжка від україти, додайте її сюди
igor302 
Свій


З нами з: 27.10.11
Востаннє: 15.11.18
Повідомлень: 108

2018-04-13 16:47  
Додав доріжку від каналу "Україна"

Ваш часовий пояс: GMT + 2 Години

Нова тема   Відповісти