Астрал: Останній ключ / Insidious: The Last Key (2018) Ukr | Sub Ukr

Нові коментарі

Нова тема   Відповісти
Автор Повідомлення
Anonymous 







2018-03-21 11:17  
Астрал: Останній ключ / Insidious: The Last Key (2018) Ukr | Sub Ukr

Астрал: Останній ключ / Insidious: The Last Key (2018) Ukr | Sub Ukr
Альтернативний постер:


Жанр: детектив, трилер, жахи
Країна: США, Канада



Кінокомпанія: Entertainment One, Stage 6 Films, Blumhouse Productions, Entertainment One, LStar Capital
Режисер: Адам Робітел
Актори: Лін Шей, Лі Воннелл, Енгус Семпсон, Кірк Асеведо, Спенсер Лок, Джош Стюарт, Брюс Девісон, Хав'єр Ботет, Маркус Хендерсон, Гана Гейєс та інші

Сюжет:
Сюжет нової стрічки розгортається довкола Еліс Рейнер (Лін Шей), екстрасенса-медіума, що намагається вести боротьбу із демонами Астралу. Еліс намагається розібратися у надзвичайних явищах, що відбуваються у будинку в Нью-Мексико, та від яких потерпає родина, яка там мешкає.
Офіційні українські промо та трейлер:

промо # 1:


промо # 2:


промо # 3:


трейлер:

Рейтинг MPAA: R - особам до 17 років обов'язкова присутність батьків або дорослого опікуна
Вікова категорія: 16+
Тривалість: 01:43:24
Якість:
Відео:
кодек:
розмір кадру: 720 х 304
бітрейт: 1624 кб/с

Аудіо:
мова: українська
переклад: професійний дубльований | студія LeDoyen
кодек: 2.0 [stereo]
бітрейт: 192 кб/с
Інформація про дубляж
Переклад: Олекса Негребецький
Режисер дубляжу: Олекса Негребецький
Звукорежисер: Віктор Алферов
Звукорежисер перезапису: Михайло Угрин
Координатор дубляжу: Анна Харківська
Ролі дублювали: Ірина Дорошенко, Юрій Кудрявець, Сергій Солопай, Марія Ніколенко та інші.
Фільм надано компанією Columbia Pictures. Дубльовано і зміксовано студією LeDoyen на замовлення компанії B&H Film Distribution.
Субтитри # 1-2 :
мова: українська (повні, форсовані)
тип: програмні (м'які)
формат: *.srt
Info
Код:
General
Complete name               : Insidious. The Last Key (2018) [Ukr] [Hurtom].avi
Format                      : AVI
Format/Info                 : Audio Video Interleave
File size                   : 1.32 GiB
Duration                    : 1 h 43 min
Overall bit rate            : 1 825 kb/s
Movie name                  : Астрал: Останній ключ / Insidious: The Last Key (2018) [Ukr] [Hurtom]
Genre                       : детектив, трилер, жахи
Writing application         : VirtualDubModUkr 1.5.10.2 (build 2542/release)
Writing library             : VirtualDubMod build 2542/release
Comment                     : https://toloka.to/t88682 21.03.2018

Video
ID                          : 0
Format                      : MPEG-4 Visual
Format profile              : Advanced [email protected]
Format settings             : BVOP1 / Custom Matrix
Format settings, BVOP       : 1
Format settings, QPel       : No
Format settings, GMC        : No warppoints
Format settings, Matrix     : Custom
Codec ID                    :
Codec ID/Hint               :
Duration                    : 1 h 43 min
Bit rate                    : 1 624 kb/s
Width                       : 720 pixels
Height                      : 304 pixels
Display aspect ratio        : 2.35:1
Frame rate                  : 23.976 (24000/1001) FPS
Color space                 : YUV
Chroma subsampling          : 4:2:0
Bit depth                   : 8 bits
Scan type                   : Progressive
Compression mode            : Lossy
Bits/(Pixel*Frame)          : 0.309
Stream size                 : 1.17 GiB (89%)
Writing library             : 73

Audio
ID                          : 1
Format                      : AC-3
Format/Info                 : Audio Coding 3
Codec ID                    : 2000
Duration                    : 1 h 43 min
Bit rate mode               : Constant
Bit rate                    : 192 kb/s
Channel(s)                  : 2 channels
Channel positions           : Front: L R
Sampling rate               : 48.0 kHz
Frame rate                  : 31.250 FPS (1536 SPF)
Bit depth                   : 16 bits
Compression mode            : Lossy
Stream size                 : 142 MiB (11%)
Alignment                   : Split accross interleaves
Interleave, duration        : 42  ms (1.00 video frame)
Interleave, preload duratio : 500  ms
Title                       : UKR DUB [Ledoyen, Megogo]
Service kind                : Complete Main
Додаткові скріншоти:
Джерело: &
Подяка сайту uafilm.tv за придбану доріжку, синхронізація та примусові субтитри - Electroz


 Трекер:    Зареєстрований   

Завантажити / скачати фільм українською



відео для новачків



 Зареєстрований:   2018-03-21 11:26
 Розмір:   1.32 GB 
 Оцінка фільму:   8.8/10 (Голосів: 37)
   
Ванько 
VIP


З нами з: 27.08.09
Востаннє: 15.10.18
Повідомлень: 302

2018-03-25 21:45  
Бабуся-мисливець на демонів :-) Легенький і добрий фільм, кумедні помічники у Еліс. Попередніх частин не дивився, порівнювати нема з чим. Не шкодую, що переглянув.
an.j. 
Свій


З нами з: 20.10.12
Востаннє: 31.07.18
Повідомлень: 56

2018-03-28 18:27  
охх нарешті,дякую)
Ваш часовий пояс: GMT + 2 Години

Нова тема   Відповісти