Зоряна - Гімн Українських Націоналістів (2015) | Ethno

Нові коментарі

Нова тема   Відповісти
Автор Повідомлення
vtischenko 
Частий відвідувач


З нами з: 08.05.14
Востаннє: 16.02.19
Повідомлень: 39

2018-03-20 22:01  
Зоряна - Гімн Українських Націоналістів (2015) | Ethno

Зоряна - Гімн Українських Націоналістів (2015) | Ethno


Стиль: Ethno
Країна, місто: Україна
Сайти: [url]https://uk.wikipedia.org/wiki/Марш українських націоналістів (пісня)[/url]
Виконавці: Зоряна

Тривалість: 00:02:44
Якість:
Відео: кодек: розмір кадру: 1280 х 720 бітрейт: 610 кб/с

Аудіо: мова: українська кодек: 2.0 бітрейт: 126 кб/с
Info:

General
Complete name : Зоряна - Гімн Українських Націоналістів.mp4
Format : MPEG-4
Format profile : Base Media / Version 2
Codec ID : mp42 (isom/mp42)
File size : 14.5 MiB
Duration : 2 min 44 s
Overall bit rate mode : Variable
Overall bit rate : 740 kb/s
Encoded date : UTC 2017-10-19 02:22:03
Tagged date : UTC 2017-10-19 02:22:03
gsst : 0
gstd : 164048

Video
ID : 1
Format : AVC
Format/Info : Advanced Video Codec
Format profile : [email protected]
Format settings : CABAC / 3 Ref Frames
Format settings, CABAC : Yes
Format settings, ReFrames : 3 frames
Codec ID : avc1
Codec ID/Info : Advanced Video Coding
Duration : 2 min 43 s
Bit rate : 610 kb/s
Width : 1 280 pixels
Height : 720 pixels
Display aspect ratio : 16:9
Frame rate mode : Variable
Frame rate : 23.976 (24000/1001) FPS
Minimum frame rate : 23.974 FPS
Maximum frame rate : 23.981 FPS
Color space : YUV
Chroma subsampling : 4:2:0
Bit depth : 8 bits
Scan type : Progressive
Bits/(Pixel*Frame) : 0.028
Stream size : 11.9 MiB (82%)
Title : ISO Media file produced by Google Inc. Created on: 10/18/2017.
Encoded date : UTC 2017-10-19 02:22:03
Tagged date : UTC 2017-10-19 02:22:03
Color range : Limited
Color primaries : BT.709
Transfer characteristics : BT.709
Matrix coefficients : BT.709

Audio
ID: 2
Format:
Format/Info: Advanced Audio Codec
Format profile: LC
Codec ID: mp4a-40-2
Duration: 2 min 44 s
Bit rate mode: Variable
Bit rate: 126 kb/s
Channel(s): 2 channels
Channel positions: Front: L R
Sampling rate: 44.1 kHz
Frame rate: 43.066 FPS (1024 SPF)
Compression mode: Lossy
Stream size: 2.46 MiB (17%)
Title: ISO Media file produced by Google Inc. Created on: 10/18/2017.
Encoded date: UTC 2017-10-19 02:22:03
Tagged date: UTC 2017-10-19 02:22:03
https://mediaarea.net/MediaInfoOnline
Скріншоти:



Джерело:
Особиста оцінка: 10 - без зайвих вагань рекомендую всім!

Гімн ОУН «Зродились ми великої години» написав Олесь Йосипович Бабій. Гімн ОУН був затверджений проводом в 1932 році. Народився Олесь Бабій 17 березня 1897 року у селі Середнім, Калуського району, Івано франківської області. Навчався у Львові служив в австрійській армії потім в Українській Галицькій Армі. У 1924-1929 роках. здобув у Празі вищу освіту, ставши доктором літературознавства в Українському педагогічному інституті ім. М. Драгоманова. Брав участь в діяльності ОУН, а у 1944 році емігрував за кордон. Емігрантське життя Олеся Бабія розпочалося в Німеччині в таборах для переміщених осіб в Карльсфельді та Мюнхені, де він прожив чотири роки, після чого переїхав до США.

youtube:


Інші варіанти виконання:
Гурт ТІНЬ СОНЦЯ:

Воплі Відоплясова:




Золотий реліз (завантажене не впливає на рейтинг)
 Трекер:    Зареєстрований   

Завантажити / скачати кліп українською



відео для новачків



 Зареєстрований:   2018-03-20 22:01
 Розмір:   14 MB 
 Оцінка кліпу:   9.8/10 (Голосів: 13)
   
11FrYkT 
Модератор відео


З нами з: 20.02.11
Востаннє: 18.02.19
Повідомлень: 5589

2018-03-21 06:41  
vtischenko , додайте обкладинку, скріншоти, Медіаінфо
Ваш часовий пояс: GMT + 2 Години

Нова тема   Відповісти