Ерін Брокович / Erin Brockovich (2000) 1080p Ukr/Eng | Sub Eng

Нові коментарі

Нова тема   Відповісти
Автор Повідомлення
staf777 
Попереджень: 1
Попереджень: 1 


З нами з: 16.11.16
Востаннє: 21.10.18
Повідомлень: 1642

2018-03-20 19:22  
Ерін Брокович / Erin Brockovich (2000) 1080p Ukr/Eng | Sub Eng

Ерін Брокович / Erin Brockovich (2000) 1080p Ukr/Eng | Sub Eng


Жанр: драма, мелодрама, біографія
Країна: США



Кінокомпанія: Universal Pictures, Columbia Pictures, Jersey Films
Режисер: Стівен Содерберг
Актори: Джулія Робертс, Альберт Фінні, Аарон Екхарт, Девід Брісбін, Доун Дідавік, Валенте Родрігес, Кончата Феррелл, Джордж Рокі Салліван, Пет Скіппер, Джек Гілл

Сюжет:
Історія про Ерін Брокович, самотню жінку з трьома дітьми, яку життя не часто балувало світлими днями. Для таких, як вона, немає кар'єрних перспектив, є тільки скромна робота в маленькій юридичній фірмі. Але для впевненої в собі красуні, яка не соромиться висловлюваннь, достатньо одного нікчемного шансу, щоб кардинально змінити свою долю. Краса і чарівність допомогли їй добитися небаченого успіху, але тепер Ерін буде потрібно неймовірна рішучість, щоб довести справу століття до суду.


Тривалість: 02:11:11
Якість:
Відео:
кодек:
розмір кадру: 1920x1040
бітрейт: 9552 кб/с

Аудіо # 1:
мова: українська
переклад: багатоголосий закадровий
кодек: 5.1
бітрейт: 448 кб/с

Аудіо # 2:
мова: англійська
переклад: оригінал
кодек: 5.1
бітрейт: 640 кб/с

Субтитри:
мова: англійська
тип: програмні (м'які)
формат: *.srt
Info
General
Unique ID : 231878723788588062615089808948065369070 (0xAE7237BF3092956E98562DDCE7127BEE)
Complete name : H:\Майбутні релізи\Erin Brockovich (2000) 1080p [Ukr Eng][Sub Eng][Hurtom].
Format :
Format version : Version 4 / Version 2
File size : 9.74 GiB
Duration : 2 h 11 min
Overall bit rate : 10.6 Mb/s
Movie name : Erin Brockovich (2000) 1080p [Ukr Eng][Sub Eng][Hurtom]
Encoded date : UTC 2018-03-20 17:17:03
Writing application : v9.8.0 ('Kuglblids') 64bit
Writing library : libebml v1.3.4 + v1.4.5

Video
ID : 1
Format : AVC
Format/Info : Advanced Video Codec
Format profile : [email protected]
Format settings, CABAC : Yes
Format settings, ReFrames : 11 frames
Codec ID : V_MPEG4/ISO/AVC
Duration : 2 h 11 min
Bit rate : 9 552 kb/s
Width : 1 920 pixels
Height : 1 040 pixels
Display aspect ratio : 1.85:1
Frame rate mode : Constant
Frame rate : 23.976 (24000/1001) FPS
Color space : YUV
Chroma subsampling : 4:2:0
Bit depth : 8 bits
Scan type : Progressive
Bits/(Pixel*Frame) : 0.200
Stream size : 8.74 GiB (90%)
Title : Эрин Брокович _ Erin Brockovich (2000).JP..1080p
Writing library : core 125 r2208 d9d2288
Encoding settings : cabac=1 / ref=11 / deblock=1:-3:-3 / analyse=0x3:0x113 / me=umh / subme=11 / psy=1 / psy_rd=1.00:0.00 / mixed_ref=1 / me_range=32 / chroma_me=0 / trellis=2 / 8x8dct=1 / cqm=0 / deadzone=21,11 / fast_pskip=1 / chroma_qp_offset=-4 / threads=2 / lookahead_threads=2 / sliced_threads=0 / nr=0 / decimate=1 / interlaced=0 / bluray_compat=0 / constrained_intra=0 / bframes=11 / b_pyramid=2 / b_adapt=2 / b_bias=0 / direct=3 / weightb=1 / open_gop=1 / weightp=2 / keyint=250 / keyint_min=23 / scenecut=40 / intra_refresh=0 / rc_lookahead=40 / rc=2pass / mbtree=0 / bitrate=9552 / ratetol=1.0 / qcomp=0.70 / qpmin=10 / qpmax=55 / qpstep=4 / cplxblur=20.0 / qblur=0.5 / vbv_maxrate=62000 / vbv_bufsize=75000 / nal_hrd=none / ip_ratio=1.40 / pb_ratio=1.30 / aq=1:1.00
Language : English
Default : Yes
Forced : No

Audio #1
ID : 2
Format : AC-3
Format/Info : Audio Coding 3
Mode extension : CM (complete main)
Format settings, Endianness : Big
Codec ID : A_AC3
Duration : 2 h 11 min
Bit rate mode : Constant
Bit rate : 448 kb/s
Channel(s) : 6 channels
Channel positions : Front: L C R, Side: L R, LFE
Sampling rate : 48.0 kHz
Frame rate : 31.250 FPS (1536 spf)
Bit depth : 16 bits
Compression mode : Lossy
Stream size : 420 MiB (4%)
Title : [UA-MVO-К1]
Language : Ukrainian
Default : Yes
Forced : Yes

Audio #2
ID : 3
Format : AC-3
Format/Info : Audio Coding 3
Mode extension : CM (complete main)
Format settings, Endianness : Big
Codec ID : A_AC3
Duration : 2 h 11 min
Bit rate mode : Constant
Bit rate : 640 kb/s
Channel(s) : 6 channels
Channel positions : Front: L C R, Side: L R, LFE
Sampling rate : 48.0 kHz
Frame rate : 31.250 FPS (1536 spf)
Bit depth : 16 bits
Compression mode : Lossy
Stream size : 601 MiB (6%)
Language : English
Default : No
Forced : No

Text
ID : 4
Format : UTF-8
Codec ID : S_TEXT/UTF8
Codec ID/Info : UTF-8 Plain Text
Duration : 2 h 5 min
Bit rate : 66 b/s
Count of elements : 1626
Stream size : 61.4 KiB (0%)
Language : English
Default : No
Forced : No
Скріншоти



Джерело: &
Особиста оцінка: 10 - без зайвих вагань рекомендую всім!
Ерін Брокович / Erin Brockovich (2000) 1080p Ukr/Eng | Sub Eng


Ерін Брокович / Erin Brockovich (2000) 1080p Ukr/Eng | Sub Eng


Срібний реліз (на рейтинг впливає 50% завантаженого)
 Трекер:    Зареєстрований   

Завантажити / скачати фільм українською



відео для новачків



 Зареєстрований:   2018-03-20 21:20
 Розмір:   9.74 GB 
 Оцінка фільму:   9/10 (Голосів: 6)
   
Інші релізи
   Ерін Брокович / Erin Brockovich (2000) AVC Ukr/Eng Aradesh  12 / 0   2.13 GB   2011-01-10 13:31 
mutomba 
VIP


З нами з: 20.10.13
Востаннє: 21.10.18
Повідомлень: 317

2018-03-21 22:38  
Цікаве кіно...
[email protected] 
Свій


З нами з: 25.03.17
Востаннє: 21.10.18
Повідомлень: 123

2018-10-02 23:00  
Дуже крутий фільм.
Ваш часовий пояс: GMT + 2 Години

Нова тема   Відповісти