Великий дружній велетень / The BFG (2016) Remux 1080p Ukr/Eng | Sub Eng

Нові коментарі

Нова тема   Відповісти
Автор Повідомлення
IronBee 
Поважний учасник


З нами з: 08.02.10
Востаннє: 16.04.19
Повідомлень: 217

2018-03-20 16:25  
Великий дружній велетень / The BFG (2016) Remux 1080p Ukr/Eng | Sub Eng

Великий дружній велетень / The BFG (2016) Remux 1080p Ukr/Eng | Sub Eng


Жанр: сімейний, фентезі
Країна: США, Великобританія, Канада



Кінокомпанія: Walt Disney Pictures, Dreamworks Pictures
Режисер: Стівен Спілберг
Актори: Марк Райленс, Ребекка Холл, Рубі Барнхілл, Білл Хадер, Джемейн Клемент, Пенелопа Уілтон, Олафур Даррі Олафссон, Адам Годлі, Рейф Сполл, Майкл Адамтвейт та інші

Сюжет:
Великий і добрий велетень не схожий на інших мешканців Землі гігантів. У нього великі вуха і гострий нюх. І хоча велетень не надто розумний, він чарівний. Інші жителі вдвічі більше і страшніше нього, а також їдять людей. Великий і добрий велетень став вигнанцем для них, через своє добре серце і відмову їсти дівчаток і хлопчиків. Маленька Софі зустрічає гіганта, і, хоча спочатку його вигляд вселяє в неї страх, потім вони стають кращими друзями. Але присутність дівчинки в Країні гігантів приваблює її страшних і злих мешканців.


Тривалість: 01:57:38
Якість: Remux
Відео:
кодек:
розмір кадру: 1920 х 1080
бітрейт: 29.9 Mб/с

Аудіо # 1:
мова: українська
переклад: професійний дубльований
кодек: 2.0
бітрейт: 192 кб/с

Аудіо # 2:
мова: англійська
переклад: оригінал
кодек: -HD MA 7.1
бітрейт: 4782 кб/с

Аудіо # 3:
мова: англійська
переклад: коментарі
кодек: 2.0
бітрейт: 320 кб/с

Субтитри:
мова: англійська (повні)
тип: пререндерні
формат: *.PGS
Info
General
Unique ID : 291565783661887484642820830195264935276 (0xDB5987007EEFA3561A7579B0FFF6556C)
Complete name : D:\Films\Великий дружній велетень The BFG (2016) Remux 1080p UkrEng Sub Eng[Hurtom].
Format :
Format version : Version 4 / Version 2
File size : 28.9 GiB
Duration : 1 h 57 min
Overall bit rate mode : Variable
Overall bit rate : 35.2 Mb/s
Encoded date : UTC 2018-03-19 16:18:41
Writing application : v21.0.0 ('Tardigrades Will Inherit The Earth') 64-bit
Writing library : libebml v1.3.5 + v1.4.8

Video
ID : 1
Format : AVC
Format/Info : Advanced Video Codec
Format profile : [email protected]
Format settings : CABAC / 4 Ref Frames
Format settings, CABAC : Yes
Format settings, ReFrames : 4 frames
Codec ID : V_MPEG4/ISO/AVC
Duration : 1 h 57 min
Bit rate mode : Variable
Bit rate : 29.9 Mb/s
Maximum bit rate : 36.0 Mb/s
Width : 1 920 pixels
Height : 1 080 pixels
Display aspect ratio : 16:9
Frame rate mode : Constant
Frame rate : 23.976 (24000/1001) FPS
Color space : YUV
Chroma subsampling : 4:2:0
Bit depth : 8 bits
Scan type : Progressive
Bits/(Pixel*Frame) : 0.601
Stream size : 24.6 GiB (85%)
Default : Yes
Forced : No

Audio #1
ID : 2
Format : AC-3
Format/Info : Audio Coding 3
Codec ID : A_AC3
Duration : 1 h 57 min
Bit rate mode : Constant
Bit rate : 192 kb/s
Channel(s) : 2 channels
Channel positions : Front: L R
Sampling rate : 48.0 kHz
Frame rate : 31.250 FPS (1536 SPF)
Bit depth : 16 bits
Compression mode : Lossy
Stream size : 162 MiB (1%)
Title : 2.0 @ 192 kbps
Language : Ukrainian
Service kind : Complete Main
Default : Yes
Forced : No

Audio #2
ID : 3
Format :
Format/Info : Digital Theater Systems
Format profile : MA / Core
Codec ID : A_DTS
Duration : 1 h 57 min
Bit rate mode : Variable / Constant
Bit rate : 4 782 kb/s / 1 509 kb/s
Channel(s) : 8 channels / 6 channels
Channel positions : Front: L C R, Side: L R, Back: L R, LFE / Front: L C R, Side: L R, LFE
Sampling rate : 48.0 kHz
Frame rate : 93.750 FPS (512 SPF)
Bit depth : 24 bits
Compression mode : Lossless / Lossy
Stream size : 3.93 GiB (14%)
Language : English
Default : No
Forced : No

Audio #3
ID : 4
Format : AC-3
Format/Info : Audio Coding 3
Codec ID : A_AC3
Duration : 1 h 57 min
Bit rate mode : Constant
Bit rate : 320 kb/s
Channel(s) : 2 channels
Channel positions : Front: L R
Sampling rate : 48.0 kHz
Frame rate : 31.250 FPS (1536 SPF)
Bit depth : 16 bits
Compression mode : Lossy
Stream size : 269 MiB (1%)
Language : English
Service kind : Complete Main
Default : No
Forced : No

Text
ID : 5
Format : PGS
Muxing mode : zlib
Codec ID : S_HDMV/PGS
Codec ID/Info : Picture based subtitle format used on BDs/HD-DVDs
Duration : 1 h 48 min
Bit rate : 25.5 kb/s
Count of elements : 2478
Stream size : 19.7 MiB (0%)
Language : English
Default : Yes
Forced : No
Скріншоти




Джерело: &
Особиста оцінка: 10 - без зайвих вагань рекомендую всім!


Золотий реліз (завантажене не впливає на рейтинг)
 Трекер:    Зареєстрований   

Завантажити / скачати фільм українською



відео для новачків



 Зареєстрований:   2018-03-20 16:25
 Розмір:   28.92 GB 
 Оцінка фільму:   9.8/10 (Голосів: 10)
   
VitNi 
Свій


З нами з: 05.05.12
Востаннє: 19.04.19
Повідомлень: 120

2018-03-20 16:55  
Чудовий фільм.
Та ще й озвучений людською мовою - колись отримав масу задоволення при перегляді.

Valinjuha88 
Новенький


З нами з: 25.11.16
Востаннє: 18.04.19
Повідомлень: 3

2018-06-27 18:21  
Станьте хтось на роздачу будь ласка!!!!!
Ost_Ok 
Новенький


З нами з: 23.12.16
Востаннє: 16.04.19
Повідомлень: 9

2019-03-30 14:29  
а де глянути хто озвучував ролі?
Ваш часовий пояс: GMT + 2 Години

Нова тема   Відповісти