Листопадові злочинці / November criminals (2017) AVC Eng | sub Ukr/Eng

Нові коментарі

Нова тема   Відповісти
Автор Повідомлення
Anonymous 







2018-03-19 23:36  
Листопадові злочинці / November criminals (2017) AVC Eng | sub Ukr/Eng

Листопадові злочинці / November criminals (2017) AVC Eng | sub Ukr/Eng


Жанр: драма, кримінальний, детектив
Країна: США



Кінокомпанія: Black Bicycle Entertainment, Lotus Entertainment
Режисер: Зача Гервазі
Актори: Хлоя Морец, Енсел Елгорт, Кетрін Кінер, Девід Стретейрн, Корі Гардрікт.

Сюжет:
18-річний Еддісон поширює в школі наркотики, ображає вчителів, жорстоко жартує над усіма. Але коли від кулі гине його однокласник, Еддісон береться за сміливе розслідування і попутно закохується в свою напарницю.


Тривалість: 01:25:54
Якість: AVC
Відео:
кодек:
розмір кадру: 1024x576 [16:9]
бітрейт: 2733 кб/с

Аудіо:
мова: англійська
переклад: оригінал
кодек: 5.1
бітрейт: 448 кб/с

Субтитри:
мова: українська
тип: програмні (м'які)
формат: *.srt

Джерело перекладу:


Субтитри:
мова: англійська
тип: програмні (м'які)
формат: *.srt
Скріншоти









МедіаІнфо
Complete name : E:\November Criminals (2017) AVC.
Format :
Format version : Version 4 / Version 2
File size : 1.91 GiB
Duration : 1 h 25 min
Overall bit rate : 3 184 kb/s
Encoded date : UTC 2018-03-19 21:28:33
Writing application : v21.0.0 ('Tardigrades Will Inherit The Earth') 64-bit
Writing library : libebml v1.3.5 + v1.4.8
Attachments : poster (5).png

Video
ID : 1
Format : AVC
Format/Info : Advanced Video Codec
Format profile : [email protected]
Format settings, CABAC : Yes
Format settings, RefFrames : 12 frames
Codec ID : V_MPEG4/ISO/AVC
Duration : 1 h 25 min
Bit rate : 2 733 kb/s
Width : 1 024 pixels
Height : 576 pixels
Display aspect ratio : 16:9
Frame rate mode : Constant
Frame rate : 23.976 (24000/1001) FPS
Color space : YUV
Chroma subsampling : 4:2:0
Bit depth : 8 bits
Scan type : Progressive
Bits/(Pixel*Frame) : 0.193
Stream size : 1.64 GiB (86%)
Writing library : core 146 r2538 121396c
Encoding settings : cabac=1 / ref=12 / deblock=1:-3:-3 / analyse=0x3:0x133 / me=umh / subme=11 / psy=1 / psy_rd=1.02:0.10 / mixed_ref=1 / me_range=32 / chroma_me=1 / trellis=2 / 8x8dct=1 / cqm=0 / deadzone=21,11 / fast_pskip=0 / chroma_qp_offset=-3 / threads=12 / lookahead_threads=3 / sliced_threads=0 / nr=0 / decimate=0 / interlaced=0 / bluray_compat=0 / constrained_intra=0 / bframes=11 / b_pyramid=2 / b_adapt=2 / b_bias=0 / direct=3 / weightb=1 / open_gop=0 / weightp=2 / keyint=240 / keyint_min=23 / scenecut=40 / intra_refresh=0 / rc=2pass / mbtree=0 / bitrate=2733 / ratetol=1.0 / qcomp=0.60 / qpmin=0 / qpmax=69 / qpstep=4 / cplxblur=20.0 / qblur=0.5 / ip_ratio=1.40 / pb_ratio=1.30 / aq=3:1.10
Language : English
Default : Yes
Forced : No

Audio
ID : 2
Format : AC-3
Format/Info : Audio Coding 3
Format settings, Endianness : Big
Codec ID : A_AC3
Duration : 1 h 25 min
Bit rate mode : Constant
Bit rate : 448 kb/s
Channel(s) : 6 channels
Channel positions : Front: L C R, Side: L R, LFE
Sampling rate : 48.0 kHz
Frame rate : 31.250 FPS (1536 SPF)
Bit depth : 16 bits
Compression mode : Lossy
Stream size : 275 MiB (14%)
Language : English
Service kind : Complete Main
Default : Yes
Forced : No

Text #1
ID : 3
Format : UTF-8
Codec ID : S_TEXT/UTF8
Codec ID/Info : UTF-8 Plain Text
Duration : 1 h 24 min
Bit rate : 92 b/s
Count of elements : 1220
Stream size : 57.3 KiB (0%)
Title : Google Movies
Language : Ukrainian
Default : Yes
Forced : No

Text #2
ID : 4
Format : UTF-8
Codec ID : S_TEXT/UTF8
Codec ID/Info : UTF-8 Plain Text
Duration : 1 h 15 min
Bit rate : 86 b/s
Count of elements : 1234
Stream size : 48.0 KiB (0%)
Language : English
Default : No
Forced : No

Menu
00:00:00.000 : :Chapter 1
00:08:00.521 : :Chapter 2
00:12:34.837 : :Chapter 3
00:16:58.392 : :Chapter 4
00:20:41.740 : :Chapter 5
00:23:47.884 : :Chapter 6
00:28:06.559 : :Chapter 7
00:33:31.592 : :Chapter 8
00:41:05.504 : :Chapter 9
00:46:20.986 : :Chapter 10
00:50:08.338 : :Chapter 11
00:56:56.579 : :Chapter 12
00:59:55.717 : :Chapter 13
01:05:51.197 : :Chapter 14
01:09:35.963 : :Chapter 15
01:13:45.170 : :Chapter 16
Джерело:
Особиста оцінка: Не дивився


 Трекер:    Зареєстрований   

Завантажити / скачати фільм українською



відео для новачків



 Зареєстрований:   2018-03-19 23:36
 Розмір:   1.91 GB 
 Оцінка фільму:   9.7/10 (Голосів: 12)
   
11FrYkT 
Модератор відео


З нами з: 20.02.11
Востаннє: 04.12.20
Повідомлень: 7051

2018-03-20 09:14  
мінімум 1 скріншот має бути з субтитрами
Ваш часовий пояс: GMT + 2 Години

Нова тема   Відповісти