Сергій Шишкін - Западенська зима, весна, літо... (2010) [] | Vocal jazz / Mainstream jazz

Нові коментарі

Нова тема   Відповісти
Автор Повідомлення
kolpavel 
VIP


З нами з: 04.05.14
Востаннє: 18.01.19
Повідомлень: 1224

2018-03-19 23:24  
Сергій Шишкін - Западенська зима, весна, літо... (2010) [] | Vocal jazz / Mainstream jazz

Сергій Шишкін - Западенська зима, весна, літо... (2010) [] | Vocal jazz / Mainstream jazz


Стиль: Vocal jazz Mainstream jazz
Країна, місто: Україна, Володимир-Волинський.
Видавець: автор
Виконавці:
- Сергій Шишкін - Музика, текст, вокал, електро-піано, зведення (3-10), мастеринг
- Григорій Лук'яненко - гітара (1,3-5,7-10), саундпродюсування
- Олег Баковський - Труба (1,4,7,8)
- Василь Карапулько - сакс, гармоніка, сопілка (3,5,6,9,10)
- Володимир Кучинський - гітара (2), сопродюсування.

Пісні:

    01. Западенська зима - 03:09
    02. Одинак - 04:30
    03. Теплий сон надії - 03:17
    04. Нічна босанова - 06:00
    05. Північний вітер - 03:51
    06. Карпатське ретро - 03:58
    07. Босанова - 05:52
    08. Балада про пана Степана - 02:57
    09. Остання Миня - 04:06
    10. Я повертаюсь - 03:50


Тривалість: 00:41:29
Мова: українська
Аудіо-кодек:
Бітрейт: 679-933 кб/с
Джерело: трекер

Додаткова інформація:
На відміну від альбому "Мисляча людина", цей – не просто сольний. В даному випадку – слухаємо роботу Сергія Шишкіна з проектом ШиБаЛукКа (Шишкін-Баковський-Лук’яненко-Карапулько). А робота, між іншим, кайфова.. Є, знаєте, такий специфічний різновид пісень – зовні майже спокійні, але з потужним внутрішнім драйвом. Звісно, якщо вслухатися в слова пісень.. І вслухатися – варто, бо Сергій Шишкін має не лише цікавий життєвий досвід, а й здатність дивитися не цей досвід з усмішкою. І лукавою, і з гірчинкою – але таки світлою. Хоча незнання мови, зрештою, кайфу не зламає, просто буде він – іншим. В музичному плані це такий чарівний казанок, в якому вариться і джаз, і блюз, і бард-шансон – і виходить музика з м’якими, але сильними крилами. Вечірня за настроєм – прозора за наповненням – і (повторюся) по-справжньому жива за відчуттям. Непересічна, власне, українська музика – десь із тих шляхів, здається, на яких виросли альбоми Віктора Морозова на вірші Костя Москальця..

EAC
[Exact Audio Copy V1.3 from 2. September 2016

EAC extraction logfile from 5. February 2018, 22:27

Сергій Шишкін / Западенська зима, веста, літо...

Used drive : TEAC CD-W524E Adapter: 1 ID: 2

Read mode : Secure
Utilize accurate stream : Yes
Defeat audio cache : Yes
Make use of C2 pointers : No

Read offset correction : 686
Overread into Lead-In and Lead-Out : No
Fill up missing offset samples with silence : Yes
Delete leading and trailing silent blocks : No
Null samples used in CRC calculations : Yes
Used interface : Native Win32 interface for Win NT & 2000
Gap handling : Appended to previous track

Used output format : User Defined Encoder
Selected bitrate : 896 kBit/s
Quality : High
Add ID3 tag : No
Command line compressor : C:\Program Files\Exact Audio Copy\\.EXE
Additional command line options : -8 -V -T "ARTIST=%artist%" -T "TITLE=%title%" -T "ALBUM=%albumtitle%" -T "DATE=%year%" -T "TRACKNUMBER=%tracknr%" -T "GENRE=%genre%" -T "COMMENT=%comment%" %hascover%--picture="%coverfile%"%hascover% %source% -o %dest%

TOC of the extracted CD

Track | Start | Length | Start sector | End sector
---------------------------------------------------------
1 | 0:00.00 | 3:08.70 | 0 | 14169
2 | 3:08.70 | 4:30.06 | 14170 | 34425
3 | 7:39.01 | 3:17.19 | 34426 | 49219
4 | 10:56.20 | 5:59.55 | 49220 | 76199
5 | 16:56.00 | 3:50.41 | 76200 | 93490
6 | 20:46.41 | 3:57.73 | 93491 | 111338
7 | 24:44.39 | 5:51.69 | 111339 | 137732
8 | 30:36.33 | 2:57.01 | 137733 | 151008
9 | 33:33.34 | 4:06.03 | 151009 | 169461
10 | 37:39.37 | 3:50.00 | 169462 | 186711

Track 1

Filename I:\CD_lossless_my\Сергій Шишкін - Западенська зима, веста, літо...(2010)\01. Сергій Шишкін - Западенська зима.wav

Pre-gap length 0:00:02.00

Peak level 78.0 %
Extraction speed 1.0 X
Track quality 100.0 %
Test CRC 9C94D268
Copy CRC 9C94D268
Track not present in AccurateRip database
Copy OK

Track 2

Filename I:\CD_lossless_my\Сергій Шишкін - Западенська зима, веста, літо...(2010)\02. Сергій Шишкін - Одинак.wav

Pre-gap length 0:00:02.00

Peak level 88.0 %
Extraction speed 2.1 X
Track quality 100.0 %
Test CRC 242DE05C
Copy CRC 242DE05C
Track not present in AccurateRip database
Copy OK

Track 3

Filename I:\CD_lossless_my\Сергій Шишкін - Западенська зима, веста, літо...(2010)\03. Сергій Шишкін - Теплий сон надії.wav

Pre-gap length 0:00:02.00

Peak level 98.3 %
Extraction speed 2.0 X
Track quality 100.0 %
Test CRC 9AED3090
Copy CRC 9AED3090
Track not present in AccurateRip database
Copy OK

Track 4

Filename I:\CD_lossless_my\Сергій Шишкін - Западенська зима, веста, літо...(2010)\04. Сергій Шишкін - Нічна босанова.wav

Pre-gap length 0:00:02.00

Peak level 88.0 %
Extraction speed 2.6 X
Track quality 100.0 %
Test CRC 8EFC2097
Copy CRC 8EFC2097
Track not present in AccurateRip database
Copy OK

Track 5

Filename I:\CD_lossless_my\Сергій Шишкін - Западенська зима, веста, літо...(2010)\05. Сергій Шишкін - Північний вітер.wav

Pre-gap length 0:00:02.00

Peak level 88.0 %
Extraction speed 6.4 X
Track quality 100.0 %
Test CRC 12F2E6F7
Copy CRC 12F2E6F7
Track not present in AccurateRip database
Copy OK

Track 6

Filename I:\CD_lossless_my\Сергій Шишкін - Западенська зима, веста, літо...(2010)\06. Сергій Шишкін - Карпатське ретро.wav

Pre-gap length 0:00:02.00

Peak level 88.0 %
Extraction speed 6.9 X
Track quality 100.0 %
Test CRC 8BC96221
Copy CRC 8BC96221
Track not present in AccurateRip database
Copy OK

Track 7

Filename I:\CD_lossless_my\Сергій Шишкін - Западенська зима, веста, літо...(2010)\07. Сергій Шишкін - Босанова.wav

Pre-gap length 0:00:02.00

Peak level 88.0 %
Extraction speed 4.4 X
Track quality 99.9 %
Test CRC A516AFBD
Copy CRC A516AFBD
Track not present in AccurateRip database
Copy OK

Track 8

Filename I:\CD_lossless_my\Сергій Шишкін - Западенська зима, веста, літо...(2010)\08. Сергій Шишкін - Балада про пана Степана.wav

Pre-gap length 0:00:02.00

Peak level 88.0 %
Extraction speed 7.2 X
Track quality 100.0 %
Test CRC 87AEDF66
Copy CRC 87AEDF66
Track not present in AccurateRip database
Copy OK

Track 9

Filename I:\CD_lossless_my\Сергій Шишкін - Западенська зима, веста, літо...(2010)\09. Сергій Шишкін - Остання Миня.wav

Pre-gap length 0:00:02.00

Peak level 88.0 %
Extraction speed 3.8 X
Track quality 99.9 %
Test CRC 5EEEE330
Copy CRC 5EEEE330
Track not present in AccurateRip database
Copy OK

Track 10

Filename I:\CD_lossless_my\Сергій Шишкін - Западенська зима, веста, літо...(2010)\10. Сергій Шишкін - Я повертаюсь.wav

Pre-gap length 0:00:02.00

Peak level 88.0 %
Extraction speed 7.6 X
Track quality 100.0 %
Test CRC 42A56EFE
Copy CRC 42A56EFE
Track not present in AccurateRip database
Copy OK

None of the tracks are present in the AccurateRip database

No errors occurred

End of status report

---- CUETools DB Plugin V2.1.6

[CTDB TOCID: 9zRAP4AZVMn2Ow8gTfUvAvIdISM-] found
Submit result: 9zRAP4AZVMn2Ow8gTfUvAvIdISM- has been confirmed
Track | CTDB Status
1 | (1/1) Accurately ripped
2 | (1/1) Accurately ripped
3 | (1/1) Accurately ripped
4 | (1/1) Accurately ripped
5 | (1/1) Accurately ripped
6 | (1/1) Accurately ripped
7 | (1/1) Accurately ripped
8 | (1/1) Accurately ripped
9 | (1/1) Accurately ripped
10 | (1/1) Accurately ripped

==== Log checksum 8ED06A71518BE5F051C361DDAEF019696E0411040CC984017A6F41280B8FE702 ====
(.CUE)
REM GENRE Jazz
REM DATE 2010
REM DISCID 7D09B90A
REM COMMENT "ExactAudioCopy v1.3"
PERFORMER "Сергій Шишкін"
TITLE "Западенська зима, веста, літо..."
REM COMPOSER ""
FILE "01. Сергій Шишкін - Западенська зима." WAVE
TRACK 01 AUDIO
TITLE "Западенська зима"
PERFORMER "Сергій Шишкін"
REM COMPOSER ""
INDEX 01 00:00:00
TRACK 02 AUDIO
TITLE "Одинак"
PERFORMER "Сергій Шишкін"
REM COMPOSER ""
INDEX 00 03:06:70
FILE "02. Сергій Шишкін - Одинак." WAVE
INDEX 01 00:00:00
TRACK 03 AUDIO
TITLE "Теплий сон надії"
PERFORMER "Сергій Шишкін"
REM COMPOSER ""
INDEX 00 04:28:06
FILE "03. Сергій Шишкін - Теплий сон надії." WAVE
INDEX 01 00:00:00
TRACK 04 AUDIO
TITLE "Нічна босанова"
PERFORMER "Сергій Шишкін"
REM COMPOSER ""
INDEX 00 03:15:19
FILE "04. Сергій Шишкін - Нічна босанова." WAVE
INDEX 01 00:00:00
TRACK 05 AUDIO
TITLE "Північний вітер"
PERFORMER "Сергій Шишкін"
REM COMPOSER ""
INDEX 00 05:57:55
FILE "05. Сергій Шишкін - Північний вітер." WAVE
INDEX 01 00:00:00
TRACK 06 AUDIO
TITLE "Карпатське ретро"
PERFORMER "Сергій Шишкін"
REM COMPOSER ""
INDEX 00 03:48:41
FILE "06. Сергій Шишкін - Карпатське ретро." WAVE
INDEX 01 00:00:00
TRACK 07 AUDIO
TITLE "Босанова"
PERFORMER "Сергій Шишкін"
REM COMPOSER ""
INDEX 00 03:55:73
FILE "07. Сергій Шишкін - Босанова." WAVE
INDEX 01 00:00:00
TRACK 08 AUDIO
TITLE "Балада про пана Степана"
PERFORMER "Сергій Шишкін"
REM COMPOSER ""
INDEX 00 05:49:69
FILE "08. Сергій Шишкін - Балада про пана Степана." WAVE
INDEX 01 00:00:00
TRACK 09 AUDIO
TITLE "Остання Миня"
PERFORMER "Сергій Шишкін"
REM COMPOSER ""
INDEX 00 02:55:01
FILE "09. Сергій Шишкін - Остання Миня." WAVE
INDEX 01 00:00:00
TRACK 10 AUDIO
TITLE "Я повертаюсь"
PERFORMER "Сергій Шишкін"
REM COMPOSER ""
INDEX 00 04:04:03
FILE "10. Сергій Шишкін - Я повертаюсь." WAVE
INDEX 01 00:00:00]


Якщо Ви справді бажаєте підтримати українське - після прослуховування, якщо музика вам сподобалась, придбайте ліцензійний диск. Підтримаймо вітчизняних виконавців!


Фріліч (завантажене не впливає на рейтинг)
 Трекер:    Зареєстрований   

Завантажити / скачати українську музику



відео для новачків



 Зареєстрований:   2018-03-19 23:24
 Розмір:   250 MB 
 Оцінка музики:   10/10 (Голосів: 4)
   
Cleaf 1.1.1.3 
Забанено
Забанено


З нами з: 05.05.18
Востаннє: 04.10.18
Повідомлень: 233

2018-08-30 18:56  
У mp3 хтось викладе?
Ваш часовий пояс: GMT + 2 Години

Нова тема   Відповісти