Фердинанд / Ferdinand (2017) UHD Remux 4K 2160p HDR H.265 Ukr/Eng | Sub Ukr/Eng

Нові коментарі

Нова тема   Відповісти
Автор Повідомлення
Devil_my_cry 
Частий відвідувач


З нами з: 26.06.10
Востаннє: 09.06.20
Повідомлень: 43

2018-03-19 20:42  
Фердинанд / Ferdinand (2017) UHD Remux 4K 2160p HDR H.265 Ukr/Eng | Sub Ukr/Eng

Фердинанд / Ferdinand (2017) UHD Remux 4K 2160p HDR H.265 Ukr/Eng | Sub Ukr/Eng


Жанр: анімація, пригодницький, комедія
Країна: США



Кінокомпанія: Blue Sky Studios, Davis Entertainment, Twentieth Century Fox Animation
Режисер: Карлос Салдана (Carlos Saldanha)
Актори: Джон Сіна (John Cena), Кейт МакКіннон (Kate McKinnon), Боббі Каннавале (Bobby Cannavale), Джеремі Сісто (Jeremy Sisto), Ентоні Андерсон (Anthony Anderson), Девід Теннант (David Tennant), Джина Родрігез (Gina Rodriguez), Гебріел Іглесіас (Gabriel Iglesias), Саллі Філліпс (Sally Phillips), Борис Коджо (Boris Kodjoe).

Сюжет:
Більшість із нас зовсім не такі, які можемо здатися ззовні. Так і бик Фердинанд – він величезний, дуже сильний, але неймовірно добрий. Замість того, щоб боцатися з родичами, Фердинанд вважає за краще миролюбно гуляти і спостерігати за природою. Але через свої значні габарити бика вибирають для кориди в Мадриді. Але як він буде битися з іншими лютими биками, якщо сам не може навіть найменшого гризуна образити? Фердинанд повинен відстояти свої переконання не дивлячись ні на що. Тільки будучи собою цей бик може щось змінити у світі. Він не збирається ні з ким битися і тому хоче втекти додому з командою нових друзів. Якщо ти бик, ти не зобов'язаний робити те, що роблять усі бики.


Тривалість: 01:48:07
Якість: 4K UltraHD Remux 2160p
Відео:
кодек: H.265 (HEVC)
розмір кадру: 3840x2160
бітрейт: 47,8 Мб/с
бітова глибина: 10 біт
кольоровий простір: BT.2020 (HDR)

Аудіо # 1:
мова: українська
переклад: професійний дубльований
кодек: 5.1
бітрейт: 448 кб/с

Аудіо # 2:
мова: англійська
переклад: оригінал
кодек: TrueHD+Atmos 7.1
бітрейт: 4 626 кб/с

Субтитри:
мова: українська
тип: пререндерні
формат: *.pgs

Субтитри:
мова: англійська
тип: програмні (м'які)
формат: *.srt
Info
Video
ID : 1
Format : HEVC
Format/Info : High Efficiency Video Coding
Format profile : Main [email protected]@High
Codec ID : V_MPEGH/ISO/HEVC
Duration : 1 h 48 min
Bit rate : 47.8 Mb/s
Width : 3 840 pixels
Height : 2 160 pixels
Display aspect ratio : 16:9
Frame rate mode : Constant
Frame rate : 23.976 (24000/1001) FPS
Color space : YUV
Chroma subsampling : 4:2:0 (Type 2)
Bit depth : 10 bits
Bits/(Pixel*Frame) : 0.240
Stream size : 36.1 GiB (90%)
Title : Ferdinand.2017.2160p.Remux.HEVC.HDR
Writing library : ATEME Titan File 3.8.13 (4.8.13.0)
Language : English
Default : Yes
Forced : No
Color range : Limited
Color primaries : BT.2020
Transfer characteristics : PQ
Matrix coefficients : BT.2020 non-constant
Mastering display color pri : Display P3
Mastering display luminance : min: 0.0050 cd/m2, max: 1000 cd/m2

Audio #1
ID : 2
Format : AC-3
Format/Info : Audio Coding 3
Codec ID : A_AC3
Duration : 1 h 48 min
Bit rate mode : Constant
Bit rate : 448 kb/s
Channel(s) : 6 channels
Channel positions : Front: L C R, Side: L R, LFE
Sampling rate : 48.0 kHz
Frame rate : 31.250 FPS (1536 SPF)
Bit depth : 16 bits
Compression mode : Lossy
Stream size : 347 MiB (1%)
Title : Blu-Ray
Language : Ukrainian
Service kind : Complete Main
Default : No
Forced : No

Audio #2
ID : 3
Format :
Format/Info : Digital Theater Systems
Format profile : MA / Core
Codec ID : A_DTS
Duration : 1 h 48 min
Bit rate mode : Variable / Constant
Bit rate : 4 626 kb/s / 1 509 kb/s
Channel(s) : 8 channels / 6 channels
Channel positions : Front: L C R, Side: L R, Back: L R, LFE / Front: L C R, Side: L R, LFE
Sampling rate : 48.0 kHz
Frame rate : 93.750 FPS (512 SPF)
Bit depth : 24 bits
Compression mode : Lossless / Lossy
Stream size : 3.50 GiB (9%)
Title : | Original |
Language : English
Default : No
Forced : No

Text #1
ID : 4
Format : PGS
Muxing mode : zlib
Codec ID : S_HDMV/PGS
Codec ID/Info : Picture based subtitle format used on BDs/HD-DVDs
Duration : 1 h 46 min
Bit rate : 26.3 kb/s
Count of elements : 2304
Stream size : 20.1 MiB (0%)
Title : Full
Language : Ukrainian
Default : No
Forced : No

Text #2
ID : 5
Format : UTF-8
Codec ID : S_TEXT/UTF8
Codec ID/Info : UTF-8 Plain Text
Duration : 1 h 35 min
Bit rate : 45 b/s
Count of elements : 1237
Stream size : 32.1 KiB (0%)
Title : Full
Language : English
Default : No
Forced : No
Скріншоти





Джерело: &
Особиста оцінка: 0 - не дивився


Золотий реліз (завантажене не впливає на рейтинг)
 Трекер:    Зареєстрований   

Завантажити / скачати мультфільм українською



відео для новачків



 Зареєстрований:   2018-03-19 20:42
 Розмір:   39.94 GB 
 Оцінка мультфільму:   9.8/10 (Голосів: 13)
   
Інші релізи
   Фердинанд / Ferdinand (2017) Remux 1080p Ukr/Eng | Sub Ukr/Eng staf777  6 / 0   24.16 GB   2018-03-16 16:12 
   Фердинанд / Ferdinand (2017) 1080p Ukr/Eng | Sub Ukr/Eng staf777  16 / 0   8.65 GB   2018-03-15 23:10 
   Фердинанд / Ferdinand (2017) AVC Ukr/Eng | Sub Ukr/Eng 11FrYkT  24 / 0   1.8 GB   2018-03-15 22:59 
   Фердинанд / Ferdinand (2017) 720p Ukr/Eng | Sub Ukr/Eng 11FrYkT  31 / 0   4.3 GB   2018-03-15 22:16 
   Фердинанд / Ferdinand (2017) Ukr/Eng | Sub Ukr/Eng Electroz  8 / 0   2.05 GB   2018-03-15 21:30 
   Фердинанд / Ferdinand (2017) Jatx_11  18 / 0   1.46 GB   2018-03-15 19:59 
mutomba 
VIP


З нами з: 20.10.13
Востаннє: 09.08.20
Повідомлень: 358

2018-03-19 21:55  
А чому в розділі "Фільми HD"? Happy

пс: ходив сім'єю до кінотеатру... нормальний мульт, але не були у захваті ні я ні дитина)
Разок глянути можна.

RussoSan 
Новенький


З нами з: 14.10.17
Востаннє: 04.08.20
Повідомлень: 2

2018-03-19 22:08  
Один із найкращих мультфільмів за останній час! дякую авторові і рекомендую до перегляду!
bot 
робот


З нами з: 30.09.07
Востаннє: 26.05.05
Повідомлень: 25203

2018-03-20 19:14  
Тему перенесено з Фільми в HD до форуму Мультфільми в HD


11FrYkT

ngxwinger 
Свій


З нами з: 19.01.14
Востаннє: 10.08.20
Повідомлень: 66

2018-06-09 16:52  
Ніяких особливих ефектів від HDR не помітив, мабуть всеж у фільмах ефект сильніший наразі, проте якість зображення в 4К тут чудова. Сам по собі мультфільм теж сподобався, досить добрий, достатньо гумору, трійка німців та тріо їжаків просто неперевершені Wide grin
Ваш часовий пояс: GMT + 2 Години

Нова тема   Відповісти