Джуманджі: Поклик джунглів / Jumanji: Welcome to the Jungle (2017) UHD Remux 4K 2160p HDR H.265 Ukr/Eng | Sub Ukr/Eng

Нові коментарі

Нова тема   Відповісти
Автор Повідомлення
Devil_my_cry 
Частий відвідувач


З нами з: 26.06.10
Востаннє: 20.04.18
Повідомлень: 42

2018-03-18 22:49  
Джуманджі: Поклик джунглів / Jumanji: Welcome to the Jungle (2017) UHD Remux 4K 2160p HDR H.265 Ukr/Eng | Sub Ukr/Eng

Джуманджі: Поклик джунглів / Jumanji: Welcome to the Jungle (2017) UHD Remux 4K 2160p HDR H.265 Ukr/Eng | Sub Ukr/Eng


Жанр: комедія, пригодницький, сімейний, фентезі
Країна: США



Кінокомпанія: Matt Tolmach Productions, Radar Pictures, Seven Bucks Productions
Режисер: Джейк Кездан / Jake Kasdan
Актори: Двейн Джонсон / Dwayne Johnson, Кевін Гарт / Kevin Hart, Джек Блек / Jack Black, Карен Гіллан / Karen Gillan, Різ Дербі / Rhys Darby, Боббі Каннавале / Bobby Cannavale, Нік Джонас / Nick Jonas, Алекс Вулф / Alex Wolff, Сер’Даріус Блейн / Ser'Darius Blain, Медісон Ісман / Madison Iseman

Сюжет:
Четверо старшокласників потрапляють в небезпечний світ гри «Джуманджі» у вигляді протилежних собі аватарів, яким доведеться битися з дикими тваринами і проходити різні випробування, щоб вижити й повернутися додому.


Тривалість: 01:59:03
Якість: 4K UltraHD Remux 2160p
Відео:
кодек: H.265 (HEVC)
розмір кадру: 3840x2160
бітрейт: 46,8 Мб/с
бітова глибина: 10 біт
кольоровий простір: BT.2020 (HDR)

Аудіо # 1:
мова: українська
переклад: професійний дубльований iTunes
кодек: 2.0
бітрейт: 224 кб/с

Аудіо # 2:
мова: англійська
переклад: оригінал
кодек: TrueHD+Atmos 7.1
бітрейт: 4837 кб/с

Субтитри # 1-2: (форсовані, повні)
мова: українська
тип: програмні (м'які)
формат: *.srt

Субтитри # 3:
мова: англійська
тип: програмні (м'які)
формат: *.srt
Info
Video
ID : 1
Format : HEVC
Format/Info : High Efficiency Video Coding
Format profile : Main [email protected]@High
Codec ID : V_MPEGH/ISO/HEVC
Duration : 1 h 59 min
Bit rate : 46.8 Mb/s
Width : 3 840 pixels
Height : 2 160 pixels
Display aspect ratio : 16:9
Frame rate mode : Constant
Frame rate : 23.976 (24000/1001) FPS
Color space : YUV
Chroma subsampling : 4:2:0 (Type 2)
Bit depth : 10 bits
Bits/(Pixel*Frame) : 0.236
Stream size : 39.0 GiB (90%)
Language : English
Default : Yes
Forced : No
Color range : Limited
Color primaries : BT.2020
Transfer characteristics : PQ
Matrix coefficients : BT.2020 non-constant
Mastering display color pri : Display P3
Mastering display luminance : min: 0.0050 cd/m2, max: 4000 cd/m2
Maximum Content Light Level : 2013 cd/m2
Maximum Frame-Average Light : 393 cd/m2

Audio #1
ID : 2
Format : AC-3
Format/Info : Audio Coding 3
Codec ID : A_AC3
Duration : 1 h 59 min
Bit rate mode : Constant
Bit rate : 224 kb/s
Channel(s) : 2 channels
Channel positions : Front: L R
Sampling rate : 48.0 kHz
Frame rate : 31.250 FPS (1536 SPF)
Bit depth : 16 bits
Compression mode : Lossy
Stream size : 191 MiB (0%)
Title : iTunes
Language : Ukrainian
Service kind : Complete Main
Default : No
Forced : No

Audio #2
ID : 3
Format : TrueHD
Format profile : TrueHD+Atmos / TrueHD
Codec ID : A_TRUEHD
Duration : 1 h 59 min
Bit rate mode : Variable
Bit rate : 4 837 kb/s
Maximum bit rate : 8 469 kb/s
Channel(s) : Object Based / 8 channels
Channel positions : Object Based / Front: L C R, Side: L R, Back: L R, LFE
Sampling rate : / 48.0 kHz
Frame rate : 1 200.000 FPS (40 SPF)
Compression mode : Lossless
Stream size : 4.02 GiB (9%)
Title : Original
Language : English
Default : No
Forced : No

Text #1
ID : 4
Format : UTF-8
Codec ID : S_TEXT/UTF8
Codec ID/Info : UTF-8 Plain Text
Duration : 1 h 27 min
Bit rate : 0 b/s
Count of elements : 15
Stream size : 471 Bytes (0%)
Title : Forced
Language : Ukrainian
Default : Yes
Forced : No

Text #2
ID : 5
Format : UTF-8
Codec ID : S_TEXT/UTF8
Codec ID/Info : UTF-8 Plain Text
Duration : 1 h 57 min
Bit rate : 76 b/s
Count of elements : 1562
Stream size : 66.4 KiB (0%)
Title : iTunes
Language : Ukrainian
Default : No
Forced : No

Text #3
ID : 6
Format : UTF-8
Codec ID : S_TEXT/UTF8
Codec ID/Info : UTF-8 Plain Text
Duration : 1 h 48 min
Bit rate : 63 b/s
Count of elements : 1539
Stream size : 50.9 KiB (0%)
Title : full
Language : English
Default : No
Forced : No
Скріншоти





Джерело: &
Особиста оцінка: 7 - моїй подрузі не сподобалося


Золотий реліз (завантажене не впливає на рейтинг)
 Трекер:    Зареєстрований   

Завантажити / скачати фільм українською



відео для новачків



 Зареєстрований:   2018-03-19 14:53
 Розмір:   43.22 GB 
 Оцінка фільму:   9.3/10 (Голосів: 12)
   
igor911 
Відео Гуртом
Відео Гуртом


З нами з: 18.01.08
Востаннє: 21.04.18
Повідомлень: 9821

2018-03-19 00:54  
відсутні форсовані субтитри (на написи), скинув в приват.
Devil_my_cry 
Частий відвідувач


З нами з: 26.06.10
Востаннє: 20.04.18
Повідомлень: 42

2018-03-19 12:20  
Реліз оновлено! Додано українські форсовані субтитри.
muggleborn 
Попереджень: 1
Попереджень: 1 


З нами з: 23.03.16
Востаннє: 20.04.18
Повідомлень: 6

2018-03-19 21:50  
повідомлення видалено за порушення п.2.1 правил
Ваш часовий пояс: GMT + 2 Години

Нова тема   Відповісти