Спіріт - душа прерій / Spirit: Stallion of the Cimarron (2002) Remux 1080p Ukr/Eng | Sub Eng

Нові коментарі

Нова тема   Відповісти
Автор Повідомлення
staf777 
Попереджень: 1
Попереджень: 1 


З нами з: 16.11.16
Востаннє: 16.10.18
Повідомлень: 1632

2018-03-18 19:21  
Спіріт - душа прерій / Spirit: Stallion of the Cimarron (2002) Remux 1080p Ukr/Eng | Sub Eng

Спіріт - душа прерій / Spirit: Stallion of the Cimarron (2002) Remux 1080p Ukr/Eng | Sub Eng


Жанр: анімація, мелодрама, комедія, пригодницький, вестерн
Країна: США

Номінації на Оскар (Кращий анімаційний фільм) та Золотий глобус (Краща пісня - "Here I Am" Браяна Адамса)

Кінокомпанія: DreamWorks Animation, DreamWorks SKG
Режисер: Келлі Асбарі / Kelly Asbury, Лорна Кук / Lorna Cook
Актори: Мет Деймон/Matt Damon, Джеймс Кромвел/James Cromwell, Даніель Студі (Daniel Studi), Чопер Бернет (Chopper Bernet та інші

Сюжет:
Дикий мустанг на ім'я Спіріт – жеребець, що живе в степах дикого Заходу. Ставши вожаком свого табуна, він захищає мустангів від чотириногих хижаків і першим приймає на себе удар, коли до них наближаються двоногі вороги – солдати армії США, що будують залізницю і воюють з місцевими індіанцями. Ціною власної свободи Спіріту вдається спасти інших від упряжі і шлей, але навіть самим досвідченим наїзникам не вдається осідлати його – надто вже він прудкий, сильний і гарячий. Тільки полоненому зовсім юному індіанцю Спіріт дається в руки, щоб разом з ним втекти подалі від нестримного наступу цивілізації.


Тривалість: 01:23:28
Якість: Remux 1080p
Відео:
кодек:
розмір кадру: 1920x1080
бітрейт: 33.6 Mб/с

Аудіо # 1:
мова: українська
переклад: багатоголосий закадровий
кодек: 5.1
бітрейт: 448 кб/с

Аудіо # 2:
мова: англійська
переклад: оригінал
кодек: 5.1
бітрейт: 640 кб/с

Субтитри:
мова: англійська
тип: програмні (м'які)
формат: *.srt
Info
General
Unique ID : 182010709876688740897070268323003122125 (0x88EDFCD5A6E2CC0286B93CB1BB7441CD)
Complete name : I:\Spirit Stallion of the Cimarron (2002) Remux 1080p [Ukr Eng][Sub Eng][Hurtom].
Format :
Format version : Version 4 / Version 2
File size : 20.2 GiB
Duration : 1 h 23 min
Overall bit rate mode : Variable
Overall bit rate : 34.7 Mb/s
Movie name : Spirit: Stallion of the Cimarron (2002) Remux 1080p [Ukr Eng][Sub Eng][Hurtom]
Encoded date : UTC 2018-03-18 16:53:11
Writing application : v9.8.0 ('Kuglblids') 64bit
Writing library : libebml v1.3.4 + v1.4.5

Video
ID : 1
Format : AVC
Format/Info : Advanced Video Codec
Format profile : [email protected]
Format settings, CABAC : Yes
Format settings, ReFrames : 4 frames
Codec ID : V_MPEG4/ISO/AVC
Duration : 1 h 23 min
Bit rate mode : Variable
Bit rate : 33.6 Mb/s
Maximum bit rate : 35.5 Mb/s
Width : 1 920 pixels
Height : 1 080 pixels
Display aspect ratio : 16:9
Frame rate mode : Constant
Frame rate : 23.976 (24000/1001) FPS
Color space : YUV
Chroma subsampling : 4:2:0
Bit depth : 8 bits
Scan type : Progressive
Bits/(Pixel*Frame) : 0.675
Stream size : 19.6 GiB (97%)
Title : Spirit.Stallion.of.the.Cimarron.2002.1080p. Remux
Language : English
Default : Yes
Forced : No

Audio #1
ID : 2
Format : AC-3
Format/Info : Audio Coding 3
Mode extension : CM (complete main)
Format settings, Endianness : Big
Codec ID : A_AC3
Duration : 1 h 23 min
Bit rate mode : Constant
Bit rate : 448 kb/s
Channel(s) : 6 channels
Channel positions : Front: L C R, Side: L R, LFE
Sampling rate : 48.0 kHz
Frame rate : 31.250 FPS (1536 spf)
Bit depth : 16 bits
Compression mode : Lossy
Stream size : 268 MiB (1%)
Title : [UA-MVO]
Language : Ukrainian
Default : Yes
Forced : Yes

Audio #2
ID : 3
Format : AC-3
Format/Info : Audio Coding 3
Mode extension : CM (complete main)
Format settings, Endianness : Big
Codec ID : A_AC3
Duration : 1 h 23 min
Bit rate mode : Constant
Bit rate : 640 kb/s
Channel(s) : 6 channels
Channel positions : Front: L C R, Side: L R, LFE
Sampling rate : 48.0 kHz
Frame rate : 31.250 FPS (1536 spf)
Bit depth : 16 bits
Compression mode : Lossy
Stream size : 382 MiB (2%)
Title : Оригинал
Language : English
Default : No
Forced : No

Text
ID : 4
Format : UTF-8
Codec ID : S_TEXT/UTF8
Codec ID/Info : UTF-8 Plain Text
Duration : 1 h 23 min
Bit rate : 46 b/s
Count of elements : 1389
Stream size : 28.5 KiB (0%)
Language : English
Default : No
Forced : No

Menu
00:00:00.000 : en:Young Spirit
00:07:32.410 : en:Leader of His Herd
00:11:29.856 : en:The Journey Begins
00:18:15.011 : en:Spirit Meets Man
00:20:40.281 : en:A Strange New Place
00:23:22.359 : en:You Can't Break Me
00:25:35.492 : en:This One Seemed Different
00:30:11.184 : en:The Great Escape
00:35:24.831 : en:Indian Camp
00:38:47.951 : en:Rain's World
00:42:06.149 : en:Torn Two Ways
00:43:52.547 : en:"Go Home"
00:48:10.638 : en:The Cavalry Attacks
00:53:29.289 : en:Remember Who You Are
00:57:18.810 : en:Master Plan
01:00:49.437 : en:Breaking Free
01:04:26.863 : en:Leap of Faith
01:11:14.562 : en:Farewell My Friend
01:14:07.234 : en:The Return
01:16:12.109 : en:End Credits
Скріншоти





Soyer - запис з ТБ, MechanicCDRR - зведення української доріжки, dbdeveloper - робота з 5.1,
Пушкар Остап та Dj BenLaden - українські постери.

Джерело: &
Особиста оцінка: 10 - без зайвих вагань рекомендую всім!


Золотий реліз (завантажене не впливає на рейтинг)
 Трекер:    Зареєстрований   

Завантажити / скачати мультфільм українською



відео для новачків



 Зареєстрований:   2018-03-18 20:57
 Розмір:   20.21 GB 
 Оцінка мультфільму:   8.9/10 (Голосів: 9)
   
bot 
робот


З нами з: 30.09.07
Востаннє: 26.05.05
Повідомлень: 19949

2018-03-18 20:57  
Тему перенесено з Анонси релізів до форуму Мультфільми в HD


staf777

Electroz 
Відео Гуртом - підтримка та поширення
Відео Гуртом - підтримка та поширення


З нами з: 18.09.14
Востаннє: 16.10.18
Повідомлень: 3022

2018-03-18 21:51  
staf777 написано:
Title : Оригинал

На майбутнє рекомендую писати українською.

Чому не залишив оригінальну TrueHD доріжку?

Ваш часовий пояс: GMT + 2 Години

Нова тема   Відповісти