Рожевий кадилак / Pink Cadillac (1989) 720p Ukr/Eng | Sub Eng

Нові коментарі

Нова тема   Відповісти
Автор Повідомлення
staf777 
Відео Гуртом - підтримка та поширення
Відео Гуртом - підтримка та поширення


З нами з: 16.11.16
Востаннє: 14.12.19
Повідомлень: 3071

2018-03-18 17:32  
Рожевий кадилак / Pink Cadillac (1989) 720p Ukr/Eng | Sub Eng

Рожевий кадилак / Pink Cadillac (1989) 720p Ukr/Eng | Sub Eng


Жанр: екшн, комедія, драма
Країна: США



Кінокомпанія: Malpaso Productions, Warner Bros. Pictures
Режисер: Бадді Ван Горн / Buddy Van Horn
Актори: Клінт Іствуд / Clint Eastwood, Бернадетт Пітерс / Bernadette Peters, Тімоті Каргарт / Timothy Carhart, Тіффані Ґаіл Робінсон / Tiffany Gail Robinson, Анжела Лоуіс Робінсон / Angela Louise Robinson, Джон Денніс Джонстон / John Dennis Johnston, Майкл Дес Баррес / Michael Des Barres, Джиммі Ф. Саґс / Jimmie F. Skaggs, Білл Моуслі / Bill Moseley, Майкл Чемпйон / Michael Champion, Джим Керрі / Jim Carrey

Сюжет:
Приватний детектив виходить на слід молодої мами, що втекла від чоловіка на його Кадилаці. Причому жінка не така вже не права: чоловік не відрізнявся великим розумом, до того ж був жорстоким расистом.
Головне те, що його расистські товариші заховали чверть мільйона "партійних грошей" у викраденій машині. Тому жінку, окрім детектива, розшукує компанія її чоловіка. Детективу нічого іншого не залишається, як закохатися у жінку і "розібратися" з расистами.


Тривалість: 02:01:03
Якість: 720p
Відео:
кодек:
розмір кадру: 1280x720
бітрейт: 5971 кб/с

Аудіо # 1:
мова: українська
переклад: двоголосий закадровий
кодек: 2.0
бітрейт: 192 кб/с

Аудіо # 2:
мова: англійська
кодек: E- 2.0
бітрейт: 224 кб/с

Джерело озвучення:


Субтитри # 1-3:
мова: англійська
тип: програмні (м'які)
формат: *.srt
Info
General
Unique ID : 205792969649066897037452236224774718167 (0x9AD248C5352DC9E3ACA976D37656C2D7)
Complete name : H:\Майбутні релізи\Pink Cadillac (1989) 720p [Ukr Eng][Sub Eng][Hurtom].
Format :
Format version : Version 4 / Version 2
File size : 5.40 GiB
Duration : 2 h 1 min
Overall bit rate : 6 388 kb/s
Movie name : Pink Cadillac (1989) 720p [Ukr Eng][Sub Eng][Hurtom]
Encoded date : UTC 2018-03-18 14:52:01
Writing application : v9.8.0 ('Kuglblids') 64bit
Writing library : libebml v1.3.4 + v1.4.5

Video
ID : 1
Format : AVC
Format/Info : Advanced Video Codec
Format profile : [email protected]
Format settings, CABAC : Yes
Format settings, ReFrames : 9 frames
Codec ID : V_MPEG4/ISO/AVC
Duration : 2 h 1 min
Bit rate : 5 971 kb/s
Width : 1 280 pixels
Height : 720 pixels
Display aspect ratio : 16:9
Frame rate mode : Constant
Frame rate : 23.976 (24000/1001) FPS
Color space : YUV
Chroma subsampling : 4:2:0
Bit depth : 8 bits
Scan type : Progressive
Bits/(Pixel*Frame) : 0.270
Stream size : 5.05 GiB (93%)
Title : RIP | MZMA
Writing library : core 152 r2851kMod ba24899
Encoding settings : cabac=1 / ref=9 / deblock=1:-3:-2 / analyse=0x3:0x113 / me=umh / subme=11 / psy=1 / fade_compensate=0.00 / psy_rd=1.00:0.00 / mixed_ref=1 / me_range=48 / chroma_me=1 / trellis=2 / 8x8dct=1 / cqm=0 / deadzone=21,11 / fast_pskip=0 / chroma_qp_offset=-2 / threads=6 / lookahead_threads=1 / sliced_threads=0 / nr=0 / decimate=0 / interlaced=0 / bluray_compat=0 / constrained_intra=0 / bframes=16 / b_pyramid=2 / b_adapt=2 / b_bias=0 / direct=3 / weightb=1 / open_gop=0 / weightp=2 / keyint=240 / keyint_min=23 / scenecut=40 / intra_refresh=0 / rc_lookahead=40 / rc=2pass / mbtree=0 / bitrate=5971 / ratetol=1.0 / qcomp=0.60 / qpmin=0 / qpmax=69 / qpstep=4 / cplxblur=20.0 / qblur=0.5 / vbv_maxrate=50000 / vbv_bufsize=62500 / nal_hrd=none / filler=0 / ip_ratio=1.40 / pb_ratio=1.30 / aq=3:0.90
Language : English
Default : Yes
Forced : No
Color range : Limited
Color primaries : BT.709
Transfer characteristics : BT.709
Matrix coefficients : BT.709

Audio #1
ID : 2
Format : AC-3
Format/Info : Audio Coding 3
Mode extension : CM (complete main)
Format settings, Endianness : Big
Codec ID : A_AC3
Duration : 2 h 1 min
Bit rate mode : Constant
Bit rate : 192 kb/s
Channel(s) : 2 channels
Channel positions : Front: L R
Sampling rate : 48.0 kHz
Frame rate : 31.250 FPS (1536 spf)
Bit depth : 16 bits
Compression mode : Lossy
Stream size : 166 MiB (3%)
Title : DVO
Language : Ukrainian
Default : Yes
Forced : Yes

Audio #2
ID : 3
Format : E-AC-3
Format/Info : Enhanced Audio Coding 3
Format settings, Endianness : Big
Codec ID : A_EAC3
Duration : 2 h 1 min
Bit rate mode : Constant
Bit rate : 224 kb/s
Channel(s) : 2 channels
Channel positions : Front: L R
Sampling rate : 48.0 kHz
Frame rate : 187.500 FPS (256 spf)
Compression mode : Lossy
Stream size : 194 MiB (4%)
Title : Original
Language : English
Default : No
Forced : No

Text #1
ID : 4
Format : UTF-8
Codec ID : S_TEXT/UTF8
Codec ID/Info : UTF-8 Plain Text
Duration : 1 h 56 min
Bit rate : 47 b/s
Count of elements : 1136
Stream size : 40.7 KiB (0%)
Title : 1
Language : English
Default : No
Forced : No

Text #2
ID : 5
Format : UTF-8
Codec ID : S_TEXT/UTF8
Codec ID/Info : UTF-8 Plain Text
Duration : 2 h 0 min
Bit rate : 56 b/s
Count of elements : 1963
Stream size : 50.4 KiB (0%)
Title : 2
Language : English
Default : No
Forced : No

Text #3
ID : 6
Format : UTF-8
Codec ID : S_TEXT/UTF8
Codec ID/Info : UTF-8 Plain Text
Duration : 2 h 0 min
Bit rate : 59 b/s
Count of elements : 2011
Stream size : 52.2 KiB (0%)
Title : SDH
Language : English
Default : No
Forced : No

Menu
00:00:00.000 : en:Studio Logos
00:00:12.000 : en:Tommy tricks Randy into giving himself up, Opening Credits
00:06:04.000 : en:Tommy captures and delivers Capshaw
00:07:13.000 : en:Tommy gets paid for his work
00:09:00.000 : en:Lou feels uncomfortable with Roy's business
00:13:08.000 : en:Lou Ann appears in court for the counterfeit cash
00:14:26.000 : en:Tommy meets with Buddy
00:16:05.000 : en:Lou Ann takes Roy's Cadillac
00:20:08.000 : en:Buddy convinces Tommy to take Lou Ann's assignment
00:22:20.000 : en:Lou Ann discovers the Cadillac contains the money
00:24:06.000 : en:Roy meets with the Birthright
00:28:09.000 : en:Lou Ann drops her kid off and heads to Reno
00:30:05.000 : en:Tommy searches for Lou Ann while she shops
00:30:54.000 : en:Tommy tracks down Lou Ann
00:36:10.000 : en:Lou Ann tries to escape and the two get to know more about each other
00:41:59.000 : en:Tommy and Lou Ann stay at a hotel and learn the money is real
00:47:29.000 : en:Alex is still upset about not having the money
00:50:18.000 : en:Tommy gets a new case while Lou Ann pleads for him to not turn her in
00:53:29.000 : en:Lou Ann and Tommy set up a sting on Jack Bass
01:00:04.000 : en:Roy and Waycross interrogate Jeff and Dinah for Lou Ann's whereabouts
01:05:29.000 : en:Roy and Waycross hold up the family
01:11:44.000 : en:Lou Ann and Tommy get more information from Ricky Z
01:17:35.000 : en:The Birthright gang buries Waycross and wants vengeance
01:18:37.000 : en:Lou Ann and Tommy check in to a motel for the night
01:20:56.000 : en:Roy's crew raids Ricky Z's place
01:24:25.000 : en:Tommy and Lou Ann get the car washed and run into trouble
01:29:31.000 : en:Tommy and Alex set up a drop point to exchange goods
01:32:22.000 : en:Birthright gang prematurely celebrates
01:33:33.000 : en:Tommy comes up with a plan to get in with the Birthright
01:41:17.000 : en:Tommy and Lou Ann go to get her baby back
01:52:57.000 : en:The gang chases after Tommy and Lou Ann
01:55:33.000 : en:Tommy and Lou Ann talk about the future
01:57:17.000 : en:End Credits
Скріншоти




Висловлюю подяку п. ratbol'у за наданий сирий звук та п. karvai0 за його синхронізацію.

Джерело:
Особиста оцінка: 0 - не дивився


Срібний реліз (на рейтинг впливає 50% завантаженого)
 Трекер:    Зареєстрований   

Завантажити / скачати фільм українською



відео для новачків



 Зареєстрований:   2018-03-18 17:48
 Розмір:   5.4 GB 
 Оцінка фільму:   8/10 (Голосів: 6)
   
Інші релізи
   Рожевий кадилак / Pink Cadillac (1989) Ukr/Eng | Sub Eng karvai0  3 / 0   1.6 GB   2013-03-30 18:53 
   Рожевий кадилак / Pink Cadillac (1989) UKR/ENG bodia87  3 / 0   1.72 GB   2013-03-14 20:24 
hetzendorf 
Попереджень: 2
Попереджень: 2 


З нами з: 23.07.15
Востаннє: 14.12.19
Повідомлень: 2595

2018-04-09 23:32  
Доволі слабенько, як для Клінта Іствуда, але в цілому непогано.
7/10

Ваш часовий пояс: GMT + 2 Години

Нова тема   Відповісти