Зменшення / Downsizing (2017) Remux 1080p Ukr/Eng | Sub Ukr/Eng

Нові коментарі

Нова тема   Відповісти
Автор Повідомлення
Anonymous 







2018-03-18 12:50  
Зменшення / Downsizing (2017) Remux 1080p Ukr/Eng | Sub Ukr/Eng

Зменшення / Downsizing (2017) Remux 1080p Ukr/Eng | Sub Ukr/Eng
Альтернативний постер


Жанр: драма, комедія, фантастика
Країна: Норвегія, США



Кінокомпанія: Paramount Pictures, Ad Hominem Enterprises, Annapurna Pictures
Режисер: Александр Пейн / Alexander Payne
Актори: Мет Деймон / Matt Damon, Крістоф Вальц / Christoph Waltz, Хонг Чау / Hong Chau, Крістен Віг / Kristen Wiig, Рольф Лассгард / Rolf Lassgård, Удо Кір / Udo Kier, Сорен Пільмарк / Søren Pilmark, Джейн Годишелл / Jayne Houdyshell, Джейсон Судейкіс / Jason Sudeikis та інші

Сюжет:
Наша планета давно вже страждає від перенаселення. Комусь не вистачає їжі, комусь не вистачає вільного простору, а комусь – статків на розкішне життя. Вчені винайшли спосіб безповоротно зменшувати людей. Це дозволить економити природні ресурси. Тепер крихітні чоловіки та жінки – зростом усього 13 см – ведуть повноцінне життя у своєму окремому від звичайних людей світі. Пол разом із дружиною Одрі наважуються на зменшення...


Тривалість: 02:15:20
Якість: BRemux

Відео:
кодек:
розмір кадру: 1920x1080
бітрейт: 24,9 Мб/с

Аудіо # 1:
мова: українська
переклад: професійний дубльований | студія LeDoyen
кодек: 2.0
бітрейт: 192 кб/с
Інформація про дубляж
Переклад: Олена Любенко
Режисер дубляжу: Анна Пащенко
Звукорежисер: Всеволод Солнцев
Координатор: Марина Булаковська
Ролі дублювали: Пол — Андрій Твердак, Нок Лан — Анна Коваль, Душан — Олесь Гімбаржевський, Одрі — Світлана Шекера, Асбйорнмен — Микола Боклан, Якобсен — Олег Лепенець, Конрад — Лесь Задніпровський, Олена Бліннікова, Ніна Касторф, Іван Розін, Михайло Войчук, Валентина Сова, Ольга Радчук, Людмила Ардельян та інші.

Фільм дубльовано та зміксовано студією LeDoyen на замовлення компанії Paramount Pictures.
Аудіо # 2:
мова: англійська
переклад: оригінал
кодек: -HD MA 7.1
бітрейт: 4370 кб/с

Аудіо # 3:
мова: англійська
переклад: оригінал
кодек: 5.1
бітрейт: 640 кб/с

Субтитри # 1-2:
мова: українська (форсовані, повні)
тип: програмні (м'які)
формат: *.srt

Субтитри # 3-5:
мова: англійська (повні, SDH, SDH кольорові)
тип: програмні (м'які)
формат: *.srt
Info
Код:
General
Unique ID                   : 130857016351059789219099979546749257171 (0x62722505F8B331DDA1BC88E9C17745D3)
Complete name               : Downsizing (2017) [Ukr,Eng sub.Ukr,Eng] Remux 1080p [Hurtom].
Format                      :
Format version              : Version 4 / Version 2
File size                   : 28.5 GiB
Duration                    : 2 h 15 min
Overall bit rate mode       : Variable
Overall bit rate            : 30.1 Mb/s
Movie name                  : Зменшення / Downsizing (2017) [Ukr,Eng sub.Ukr,Eng] Remux 1080p [Hurtom]
Released date               : 2017
Encoded date                : UTC 2018-04-13 19:54:03
Writing application         : v22.0.0 ('At The End Of The World') 64-bit
Writing library             : libebml v1.3.5 + v1.4.8
Cover                       : Yes
Comment                     : http://www.imdb.com/title/tt1389072/
Attachments                 : cover.jpg
ARTIST                      : Мет Деймон / Matt Damon, Крістоф Вальц / Christoph Waltz, Хонг Чау / Hong Chau, Крістен Віг / Kristen Wiig, Рольф Лассгард / Rolf Lassgård, Удо Кір / Udo Kier, Сорен Пільмарк / Søren Pilmark, Джейн Годишелл / Jayne Houdyshell, Джейсон Судейкіс / Jason Sudeikis та інші
DIRECTOR                    : Александр Пейн / Alexander Payne
GENRE                       : драма, комедія, фантастика
SYNOPSIS                    : Наша планета давно вже страждає від перенаселення. Комусь не вистачає їжі, комусь не вистачає вільного простору, а комусь – статків на розкішне життя. Вчені винайшли спосіб безповоротно зменшувати людей. Це дозволить економити природні ресурси. Тепер крихітні чоловіки та жінки – зростом усього 13 см – ведуть повноцінне життя у своєму окремому від звичайних людей світі. Пол разом із дружиною Одрі наважуються на зменшення...
Url                         : https://toloka.to/t88590

Video
ID                          : 1
Format                      : AVC
Format/Info                 : Advanced Video Codec
Format profile              : [email protected]
Format settings             : CABAC / 4 Ref Frames
Format settings, CABAC      : Yes
Format settings, ReFrames   : 4 frames
Codec ID                    : V_MPEG4/ISO/AVC
Duration                    : 2 h 15 min
Bit rate mode               : Variable
Bit rate                    : 24.9 Mb/s
Maximum bit rate            : 30.0 Mb/s
Width                       : 1 920 pixels
Height                      : 1 080 pixels
Display aspect ratio        : 16:9
Frame rate mode             : Constant
Frame rate                  : 23.976 (24000/1001) FPS
Color space                 : YUV
Chroma subsampling          : 4:2:0
Bit depth                   : 8 bits
Scan type                   : Progressive
Bits/(Pixel*Frame)          : 0.501
Stream size                 : 23.5 GiB (83%)
Title                       : Зменшення / Downsizing (2017) Remux 1080p
Language                    : English
Default                     : Yes
Forced                      : No

Audio #1
ID                          : 2
Format                      : AC-3
Format/Info                 : Audio Coding 3
Codec ID                    : A_AC3
Duration                    : 2 h 15 min
Bit rate mode               : Constant
Bit rate                    : 192 kb/s
Channel(s)                  : 2 channels
Channel positions           : Front: L R
Sampling rate               : 48.0 kHz
Frame rate                  : 31.250 FPS (1536 SPF)
Bit depth                   : 16 bits
Compression mode            : Lossy
Stream size                 : 186 MiB (1%)
Title                       : Dub [LeDoyen, iTunes] 2.0 [stereo] 192 Kbps
Language                    : Ukrainian
Service kind                : Complete Main
Default                     : Yes
Forced                      : Yes

Audio #2
ID                          : 3
Format                      :
Format/Info                 : Digital Theater Systems
Format profile              : MA / Core
Codec ID                    : A_DTS
Duration                    : 2 h 15 min
Bit rate mode               : Variable / Constant
Bit rate                    : 4 370 kb/s / 1 509 kb/s
Channel(s)                  : 8 channels / 6 channels
Channel positions           : Front: L C R, Side: L R, Back: L R, LFE / Front: L C R, Side: L R, LFE
Sampling rate               : 48.0 kHz
Frame rate                  : 93.750 FPS (512 SPF)
Bit depth                   : 24 bits
Compression mode            : Lossless / Lossy
Stream size                 : 4.13 GiB (15%)
Title                       : Original, -HD MA 7.1 4370 Kbps
Language                    : English
Default                     : No
Forced                      : No

Audio #3
ID                          : 4
Format                      : AC-3
Format/Info                 : Audio Coding 3
Codec ID                    : A_AC3
Duration                    : 2 h 15 min
Bit rate mode               : Constant
Bit rate                    : 640 kb/s
Channel(s)                  : 6 channels
Channel positions           : Front: L C R, Side: L R, LFE
Sampling rate               : 48.0 kHz
Frame rate                  : 31.250 FPS (1536 SPF)
Bit depth                   : 16 bits
Compression mode            : Lossy
Stream size                 : 620 MiB (2%)
Title                       : Original, 5.1 640 Kbps
Language                    : English
Service kind                : Complete Main
Default                     : No
Forced                      : No

Text #1
ID                          : 5
Format                      : UTF-8
Codec ID                    : S_TEXT/UTF8
Codec ID/Info               : UTF-8 Plain Text
Duration                    : 2 h 14 min
Bit rate                    : 2 b/s
Count of elements           : 41
Stream size                 : 2.04 KiB (0%)
Title                       : Ukr forced
Language                    : Ukrainian
Default                     : Yes
Forced                      : Yes

Text #2
ID                          : 6
Format                      : UTF-8
Codec ID                    : S_TEXT/UTF8
Codec ID/Info               : UTF-8 Plain Text
Duration                    : 2 h 14 min
Bit rate                    : 90 b/s
Count of elements           : 1762
Stream size                 : 89.4 KiB (0%)
Title                       : Ukr full
Language                    : Ukrainian
Default                     : No
Forced                      : No

Text #3
ID                          : 7
Format                      : UTF-8
Codec ID                    : S_TEXT/UTF8
Codec ID/Info               : UTF-8 Plain Text
Duration                    : 2 h 4 min
Bit rate                    : 58 b/s
Count of elements           : 1633
Stream size                 : 53.5 KiB (0%)
Title                       : Eng Full
Language                    : English
Default                     : No
Forced                      : No

Text #4
ID                          : 8
Format                      : UTF-8
Codec ID                    : S_TEXT/UTF8
Codec ID/Info               : UTF-8 Plain Text
Duration                    : 2 h 7 min
Bit rate                    : 63 b/s
Count of elements           : 1914
Stream size                 : 58.8 KiB (0%)
Title                       : Eng SDH
Language                    : English
Default                     : No
Forced                      : No

Text #5
ID                          : 9
Format                      : UTF-8
Codec ID                    : S_TEXT/UTF8
Codec ID/Info               : UTF-8 Plain Text
Duration                    : 2 h 7 min
Bit rate                    : 72 b/s
Count of elements           : 1914
Stream size                 : 67.1 KiB (0%)
Title                       : Eng SDH Colored
Language                    : English
Default                     : No
Forced                      : No

Menu
00:00:00.000                : en:00:00:00.000
00:06:13.540                : en:00:06:13.540
00:10:38.346                : en:00:10:38.346
00:16:24.483                : en:00:16:24.483
00:22:14.667                : en:00:22:14.667
00:30:23.905                : en:00:30:23.905
00:38:44.364                : en:00:38:44.364
00:42:38.598                : en:00:42:38.598
00:47:36.687                : en:00:47:36.687
00:55:08.722                : en:00:55:08.722
01:04:35.830                : en:01:04:35.830
01:13:11.596                : en:01:13:11.596
01:21:13.202                : en:01:21:13.202
01:28:00.775                : en:01:28:00.775
01:33:25.308                : en:01:33:25.308
01:41:42.513                : en:01:41:42.513
01:44:11.871                : en:01:44:11.871
01:51:54.374                : en:01:51:54.374
01:58:36.443                : en:01:58:36.443
02:08:58.856                : en:02:08:58.856


Джерело: & &


Золотий реліз (завантажене не впливає на рейтинг)
 Трекер:    Зареєстрований   

Завантажити / скачати фільм українською



відео для новачків



 Зареєстрований:   2018-04-13 23:18
 Розмір:   28.46 GB 
 Оцінка фільму:   8.5/10 (Голосів: 18)
   
Інші релізи
   Зменшення / Downsizing (2017) 1080p H.265 Ukr/Eng | Sub Ukr/Eng igor302  6 / 0   6.82 GB   2018-04-14 03:55 
   Зменшення / Downsizing (2017) Ukr/Eng | Sub Ukr/Eng igor911  10 / 0   2.31 GB   2018-04-14 00:40 
   Зменшення / Downsizing (2017) 1080p Ukr/Eng | Sub Ukr/Eng staf777  6 / 0   16.54 GB   2018-04-13 23:49 
   Зменшення / Downsizing (2017) igor911  14 / 0   1.46 GB   2018-04-13 23:05 
   Зменшення / Downsizing (2017) AVC Ukr/Eng | Sub Ukr/Eng 11FrYkT  9 / 0   2.69 GB   2018-04-13 22:54 
   Зменшення / Downsizing (2017) 720p Ukr/Eng | Sub Ukr/Eng 11FrYkT  12 / 0   5.16 GB   2018-04-13 22:53 
   Зменшення / Downsizing (2017) AVC Ukr/Eng | Sub Ukr/Eng uafilm.tv  16 / 0   1.58 GB   2018-04-13 21:34 
артикул 
Частий відвідувач


З нами з: 31.12.08
Востаннє: 18.05.19
Повідомлень: 25

2018-04-21 17:38  
якщо у фільмі присутній Мет Деймон його рейтин 5/10, відповідно решту фільми лише на 5,7/10 нашкрябли?
XipypriR 
Новенький


З нами з: 21.11.14
Востаннє: 19.05.19
Повідомлень: 3

2018-04-25 18:26  
Один з самих безглуздих та тупих фільмів за останні роки! :-(
Uberwinder 
VIP


З нами з: 18.11.16
Востаннє: 19.05.19
Повідомлень: 277

2018-06-22 21:55  
А мені сподобався, досить легкий, часом піднімались вельми серйозні теми. І дуже вдало підібраний саундтрек.
Ваш часовий пояс: GMT + 2 Години

Нова тема   Відповісти