Зменшення / Downsizing (2017) Ukr/Eng | Sub Ukr/Eng

Нові коментарі

Нова тема   Відповісти
Автор Повідомлення
Anonymous 







2018-03-18 12:48  
Зменшення / Downsizing (2017) Ukr/Eng | Sub Ukr/Eng

Зменшення / Downsizing (2017) Ukr/Eng | Sub Ukr/Eng
Альтернативний постер


Жанр: драма, комедія, фантастика
Країна: Норвегія, США



Кінокомпанія: Paramount Pictures, Ad Hominem Enterprises, Annapurna Pictures
Режисер: Александр Пейн / Alexander Payne
Актори: Мет Деймон / Matt Damon, Крістоф Вальц / Christoph Waltz, Хонг Чау / Hong Chau, Крістен Віг / Kristen Wiig, Рольф Лассгард / Rolf Lassgård, Удо Кір / Udo Kier, Сорен Пільмарк / Søren Pilmark, Джейн Годишелл / Jayne Houdyshell, Джейсон Судейкіс / Jason Sudeikis та інші

Сюжет:
Наша планета давно вже страждає від перенаселення. Комусь не вистачає їжі, комусь не вистачає вільного простору, а комусь – статків на розкішне життя. Вчені винайшли спосіб безповоротно зменшувати людей. Це дозволить економити природні ресурси. Тепер крихітні чоловіки та жінки – зростом усього 13 см – ведуть повноцінне життя у своєму окремому від звичайних людей світі. Пол разом із дружиною Одрі наважуються на зменшення...


Тривалість: 02:15:20
Якість:

Відео:
кодек:
розмір кадру: 720 х 304
бітрейт: 1849 кб/с

Аудіо # 1:
мова: українська
переклад: професійний дубльований | студія LeDoyen
кодек: 2.0
бітрейт: 192 кб/с
Інформація про дубляж
Переклад: Олена Любенко
Режисер дубляжу: Анна Пащенко
Звукорежисер: Всеволод Солнцев
Координатор: Марина Булаковська
Ролі дублювали: Пол — Андрій Твердак, Нок Лан — Анна Коваль, Душан — Олесь Гімбаржевський, Одрі — Світлана Шекера, Асбйорнмен — Микола Боклан, Якобсен — Олег Лепенець, Конрад — Лесь Задніпровський, Олена Бліннікова, Ніна Касторф, Іван Розін, Михайло Войчук, Валентина Сова, Ольга Радчук, Людмила Ардельян та інші.

Фільм дубльовано та зміксовано студією LeDoyen на замовлення компанії Paramount Pictures.
Аудіо # 2:
мова: англійська
переклад: оригінал
кодек: 5.1
бітрейт: 384 кб/с

Субтитри # 1-2:
мова: українська (форсовані, повні)
тип: програмні (м'які)
формат: *.srt

Субтитри # 3-5:
мова: англійська (повні, SDH, SDH кольорові)
тип: програмні (м'які)
формат: *.srt
Info
Код:
General
Complete name               : Downsizing (2017) [Ukr,Eng] [Hurtom].avi
Format                      : AVI
Format/Info                 : Audio Video Interleave
Format profile              : OpenDML
File size                   : 2.31 GiB
Duration                    : 2 h 15 min
Overall bit rate            : 2 442 kb/s
Movie name                  : Зменшення / Downsizing (2017) [Ukr,Eng] [Hurtom]
Genre                       : драма, комедія, фантастика
Writing application         : VirtualDubModUkr 1.5.10.2 (build 2542/release)
Writing library             : VirtualDubMod build 2542/release
Comment                     : https://toloka.to/t88589 13.04.2018

Video
ID                          : 0
Format                      : MPEG-4 Visual
Format profile              : Advanced [email protected]
Format settings             : BVOP1 / Custom Matrix
Format settings, BVOP       : 1
Format settings, QPel       : No
Format settings, GMC        : No warppoints
Format settings, Matrix     : Custom
Codec ID                    :
Codec ID/Hint               :
Duration                    : 2 h 15 min
Bit rate                    : 1 849 kb/s
Width                       : 720 pixels
Height                      : 304 pixels
Display aspect ratio        : 2.35:1
Frame rate                  : 23.976 (24000/1001) FPS
Color space                 : YUV
Chroma subsampling          : 4:2:0
Bit depth                   : 8 bits
Scan type                   : Progressive
Compression mode            : Lossy
Bits/(Pixel*Frame)          : 0.352
Stream size                 : 1.75 GiB (76%)
Writing library             : 73

Audio #1
ID                          : 1
Format                      : AC-3
Format/Info                 : Audio Coding 3
Codec ID                    : 2000
Duration                    : 2 h 15 min
Bit rate mode               : Constant
Bit rate                    : 192 kb/s
Channel(s)                  : 2 channels
Channel positions           : Front: L R
Sampling rate               : 48.0 kHz
Frame rate                  : 31.250 FPS (1536 SPF)
Bit depth                   : 16 bits
Compression mode            : Lossy
Stream size                 : 186 MiB (8%)
Alignment                   : Split accross interleaves
Interleave, duration        : 42  ms (1.00 video frame)
Interleave, preload duratio : 500  ms
Title                       : UKR DUB [LeDoyen, iTunes]
Service kind                : Complete Main

Audio #2
ID                          : 2
Format                      : AC-3
Format/Info                 : Audio Coding 3
Codec ID                    : 2000
Duration                    : 2 h 15 min
Bit rate mode               : Constant
Bit rate                    : 384 kb/s
Channel(s)                  : 6 channels
Channel positions           : Front: L C R, Side: L R, LFE
Sampling rate               : 48.0 kHz
Frame rate                  : 31.250 FPS (1536 SPF)
Bit depth                   : 16 bits
Compression mode            : Lossy
Stream size                 : 372 MiB (16%)
Alignment                   : Split accross interleaves
Interleave, duration        : 42  ms (1.00 video frame)
Interleave, preload duratio : 500  ms
Title                       : ENG Original
Service kind                : Complete Main


Джерело: & &


 Трекер:    Зареєстрований   

Завантажити / скачати фільм українською



відео для новачків



 Зареєстрований:   2018-04-14 00:40
 Розмір:   2.31 GB 
 Оцінка фільму:   8.4/10 (Голосів: 59)
   
Інші релізи
   Зменшення / Downsizing (2017) 1080p H.265 Ukr/Eng | Sub Ukr/Eng igor302  3 / 0   6.82 GB   2018-04-14 03:55 
   Зменшення / Downsizing (2017) 1080p Ukr/Eng | Sub Ukr/Eng staf777  1 / 0   16.54 GB   2018-04-13 23:49 
   Зменшення / Downsizing (2017) Remux 1080p Ukr/Eng | Sub Ukr/Eng igor911  0 / 0   28.46 GB   2018-04-13 23:18 
   Зменшення / Downsizing (2017) igor911  5 / 0   1.46 GB   2018-04-13 23:05 
   Зменшення / Downsizing (2017) AVC Ukr/Eng | Sub Ukr/Eng 11FrYkT  1 / 0   2.69 GB   2018-04-13 22:54 
   Зменшення / Downsizing (2017) 720p Ukr/Eng | Sub Ukr/Eng 11FrYkT  5 / 0   5.16 GB   2018-04-13 22:53 
   Зменшення / Downsizing (2017) AVC Ukr/Eng | Sub Ukr/Eng uafilm.tv  6 / 0   1.58 GB   2018-04-13 21:34 
antik_2008 
Релізер і модератор відео


З нами з: 20.10.08
Востаннє: 26.05.19
Повідомлень: 1992

2018-04-14 00:46  
Дякую!
ukrnet 
Свій


З нами з: 03.01.14
Востаннє: 25.05.19
Повідомлень: 59

2018-04-14 16:45  
Таке гівно, шо то жесть. Не рекомендую!
Mr.Emm 
Поважний учасник


З нами з: 03.08.08
Востаннє: 25.05.19
Повідомлень: 234

2018-04-15 17:27  
Хрінь
tarlviv 
Новенький


З нами з: 03.05.12
Востаннє: 25.05.19
Повідомлень: 21

2018-05-06 21:50  
Чекав чогось кращого від фільму, а тут навіть історії ніякої немає. Навіть кінцева мета в фільмі не зрозуміла.
Unregistered 
Новенький


З нами з: 23.09.15
Востаннє: 22.05.19
Повідомлень: 6

2018-05-17 20:52  
Рідкісний непотріб. Немає на що тут дивитися. Думаю, що навіть фани Мета Деймона та й ті фільм навряд чи схвально оцінять...
klm_109 
Новенький


З нами з: 23.09.17
Востаннє: 15.01.19
Повідомлень: 11

2018-05-20 11:29  
постер цікавий...жіночі руки заміряли середній розмір...
nimiroff 
Новенький


З нами з: 05.06.10
Востаннє: 13.05.19
Повідомлень: 14

2018-07-15 21:15  
цікаво, звідки такий середній бал, якщо кіно таке гівно?Happy)
panFrost 
Новенький


З нами з: 23.07.09
Востаннє: 16.05.19
Повідомлень: 11

2018-07-15 23:26  
3 рази починав дивитись...таке лайно, не подолав...
Ваш часовий пояс: GMT + 2 Години

Нова тема   Відповісти