Зменшення / Downsizing (2017)

Нові коментарі

Нова тема   Відповісти
Автор Повідомлення
Anonymous 







2018-03-18 12:36  
Зменшення / Downsizing (2017)

Зменшення / Downsizing (2017)
Альтернативний постер


Жанр: драма, комедія, фантастика
Країна: Норвегія, США



Кінокомпанія: Paramount Pictures, Ad Hominem Enterprises, Annapurna Pictures
Режисер: Александр Пейн / Alexander Payne
Актори: Мет Деймон / Matt Damon, Крістоф Вальц / Christoph Waltz, Хонг Чау / Hong Chau, Крістен Віг / Kristen Wiig, Рольф Лассгард / Rolf Lassgård, Удо Кір / Udo Kier, Сорен Пільмарк / Søren Pilmark, Джейн Годишелл / Jayne Houdyshell, Джейсон Судейкіс / Jason Sudeikis та інші

Сюжет:
Наша планета давно вже страждає від перенаселення. Комусь не вистачає їжі, комусь не вистачає вільного простору, а комусь – статків на розкішне життя. Вчені винайшли спосіб безповоротно зменшувати людей. Це дозволить економити природні ресурси. Тепер крихітні чоловіки та жінки – зростом усього 13 см – ведуть повноцінне життя у своєму окремому від звичайних людей світі. Пол разом із дружиною Одрі наважуються на зменшення...


Тривалість: 02:15:20
Якість:

Відео:
кодек:
розмір кадру: 720 х 304
бітрейт: 1344 кб/с

Аудіо:
мова: українська
переклад: професійний дубльований | студія LeDoyen
кодек: 2.0
бітрейт: 192 кб/с
Інформація про дубляж
Переклад: Олена Любенко
Режисер дубляжу: Анна Пащенко
Звукорежисер: Всеволод Солнцев
Координатор: Марина Булаковська
Ролі дублювали: Пол — Андрій Твердак, Нок Лан — Анна Коваль, Душан — Олесь Гімбаржевський, Одрі — Світлана Шекера, Асбйорнмен — Микола Боклан, Якобсен — Олег Лепенець, Конрад — Лесь Задніпровський, Олена Бліннікова, Ніна Касторф, Іван Розін, Михайло Войчук, Валентина Сова, Ольга Радчук, Людмила Ардельян та інші.

Фільм дубльовано та зміксовано студією LeDoyen на замовлення компанії Paramount Pictures.
Субтитри :
мова: українська (форсовані)
тип: програмні (м'які)
формат: *.srt
Info
Код:
General
Complete name               : Downsizing (2017) [Ukr] [Hurtom].avi
Format                      : AVI
Format/Info                 : Audio Video Interleave
File size                   : 1.46 GiB
Duration                    : 2 h 15 min
Overall bit rate            : 1 545 kb/s
Movie name                  : Зменшення / Downsizing (2017) [Ukr] [Hurtom]
Genre                       : драма, комедія, фантастика
Writing application         : VirtualDubModUkr 1.5.10.2 (build 2542/release)
Writing library             : VirtualDubMod build 2542/release
Comment                     : https://toloka.to/t88588 13.04.2018

Video
ID                          : 0
Format                      : MPEG-4 Visual
Format profile              : Advanced [email protected]
Format settings             : BVOP1 / Custom Matrix
Format settings, BVOP       : 1
Format settings, QPel       : No
Format settings, GMC        : No warppoints
Format settings, Matrix     : Custom
Codec ID                    :
Codec ID/Hint               :
Duration                    : 2 h 15 min
Bit rate                    : 1 344 kb/s
Width                       : 720 pixels
Height                      : 304 pixels
Display aspect ratio        : 2.35:1
Frame rate                  : 23.976 (24000/1001) FPS
Color space                 : YUV
Chroma subsampling          : 4:2:0
Bit depth                   : 8 bits
Scan type                   : Progressive
Compression mode            : Lossy
Bits/(Pixel*Frame)          : 0.256
Stream size                 : 1.27 GiB (87%)
Writing library             : 73

Audio
ID                          : 1
Format                      : AC-3
Format/Info                 : Audio Coding 3
Codec ID                    : 2000
Duration                    : 2 h 15 min
Bit rate mode               : Constant
Bit rate                    : 192 kb/s
Channel(s)                  : 2 channels
Channel positions           : Front: L R
Sampling rate               : 48.0 kHz
Frame rate                  : 31.250 FPS (1536 SPF)
Bit depth                   : 16 bits
Compression mode            : Lossy
Stream size                 : 186 MiB (12%)
Alignment                   : Split accross interleaves
Interleave, duration        : 42  ms (1.00 video frame)
Interleave, preload duratio : 500  ms
Title                       : UKR DUB [LeDoyen, iTunes]
Service kind                : Complete Main


Джерело: & &


 Трекер:    Зареєстрований   

Завантажити / скачати фільм українською



відео для новачків



 Зареєстрований:   2018-04-13 23:05
 Розмір:   1.46 GB 
 Оцінка фільму:   8.6/10 (Голосів: 61)
   
Інші релізи
   Зменшення / Downsizing (2017) 1080p H.265 Ukr/Eng | Sub Ukr/Eng igor302  5 / 0   6.82 GB   2018-04-14 03:55 
   Зменшення / Downsizing (2017) Ukr/Eng | Sub Ukr/Eng igor911  8 / 0   2.31 GB   2018-04-14 00:40 
   Зменшення / Downsizing (2017) 1080p Ukr/Eng | Sub Ukr/Eng staf777  3 / 0   16.54 GB   2018-04-13 23:49 
   Зменшення / Downsizing (2017) Remux 1080p Ukr/Eng | Sub Ukr/Eng igor911  0 / 0   28.46 GB   2018-04-13 23:18 
   Зменшення / Downsizing (2017) AVC Ukr/Eng | Sub Ukr/Eng 11FrYkT  10 / 0   2.69 GB   2018-04-13 22:54 
   Зменшення / Downsizing (2017) 720p Ukr/Eng | Sub Ukr/Eng 11FrYkT  3 / 0   5.16 GB   2018-04-13 22:53 
   Зменшення / Downsizing (2017) AVC Ukr/Eng | Sub Ukr/Eng uafilm.tv  11 / 0   1.58 GB   2018-04-13 21:34 
pony 
VIP


З нами з: 14.05.10
Востаннє: 08.05.19
Повідомлень: 335

2018-03-18 14:32  
цікаве кіно.цікаво чи реально таке могло б допомогти людству вижити?!
Puente 
Новенький


З нами з: 12.03.15
Востаннє: 23.05.19
Повідомлень: 12

2018-03-28 17:12  
З наукової точки зору найбільш правильно описано в 2 книжках Ю.Нікітіна про "Мегамир" ...
Сев 
Новенький


З нами з: 19.11.15
Востаннє: 24.05.19
Повідомлень: 4

2018-04-18 13:28  
Цікавий фільм. Дуже сподобався переклад.
dihor 
Новенький


З нами з: 06.04.11
Востаннє: 16.05.19
Повідомлень: 19

2018-04-24 23:10  
Дякую!
White_123 
Свій


З нами з: 15.02.13
Востаннє: 26.05.19
Повідомлень: 137

2018-04-25 21:51  
Ідея непогана, але, як на мене, фільм вийшов нуднуватим.
Вальц на висоті, прикольний чувак.
На 6/10.
дуже дивно, що ані птахи, ані гризуни та інші тварини не проявляли жодного інтересу до зменшеного їдла у відкритій колонії. Ну і подорож на маленькому кораблику деж доволі сумнівна.

ArtemchukYuliia 
Новенький


З нами з: 11.06.17
Востаннє: 14.06.18
Повідомлень: 1

2018-05-17 18:32  
Цікаво було лише перші 15хв. Далі треш
Ваш часовий пояс: GMT + 2 Години

Нова тема   Відповісти