Розплата (Борг) / The Debt (2010) Remux 1080p 2xUkr/Eng | Sub Ukr/Eng

Нові коментарі

Нова тема   Відповісти
Автор Повідомлення
kryk-v.ya. 
VIP


З нами з: 14.02.14
Востаннє: 19.01.19
Повідомлень: 862

2018-03-18 10:13  
Розплата / Борг / The Debt (2010) Remux 1080p 2xUkr/Eng | Sub Ukr/Eng
Оригінальний постер:


Жанр: трилер, драма
Країна: США



Кінокомпанія: Miramax Films, Marv Films, Pioneer Pictures
Режисер: Джон Медден (John Madden)
Актори: Сем Вортінгтон (Sam Worthington), Гелен Міррен(Олена Миронова) (Helen Mirren), Джессіка Честейн (Jessica Chastain), Кіаран Гіндс (Ciarán Hinds), Том Вілкінсон (Tom Wilkinson) та інші

Сюжет:
У фільмі розповідається про трьох молодих агентів «Моссаду» на секретному завданні, які в 1965 році викрадають і вбивають відомого нацистського злочинця. Тридцять років по тому в Україні з'являється людина, яку звинувачують в нацизмі, і одному з колишніх агентів доведеться повернутися до своєї діяльності, щоб дошукатися правди.


Тривалість: 01:53:28
Відео: Remux 1080p
кодек:
розмір кадру: 1920х1080
бітрейт: 32,6 Мб/с

Аудіо # 1:
мова: українська
переклад: багатоголосий закадровий
кодек: 2.0
бітрейт: 192 кб/с

Аудіо # 2:
мова: українська
переклад: багатоголосий закадровий CINE+
кодек: 2.0
бітрейт: 192 кб/с

Аудіо # 3:
мова: англійська
переклад: оригінал
кодек: -HD MA 5.1
бітрейт: 2171 кб/с

Субтитри # 1:
мова: українська
тип: програмні (м'які)
формат: *.srt

Субтитри # 2:
мова: англійська
тип: програмні (м'які)
формат: *.srt
Info
General
Unique ID : 189791560433672412880222432539755128725 (0x8EC88662AC181E0572ADF3261FD7A795)
Complete name : D:\LOUD\The Debt (2010) Remux 1080p.
Format :
Format version : Version 4 / Version 2
File size : 27.8 GiB
Duration : 1 h 53 min
Overall bit rate mode : Variable
Overall bit rate : 35.1 Mb/s
Encoded date : UTC 2018-11-24 11:39:42
Writing application : v25.0.0 ('Prog Noir') 64-bit
Writing library : libebml v1.3.6 + v1.4.9
Attachments : 0013.jpg

Video
ID : 1
Format : AVC
Format/Info : Advanced Video Codec
Format profile : [email protected]
Format settings : CABAC / 4 Ref Frames
Format settings, CABAC : Yes
Format settings, ReFrames : 4 frames
Format settings, GOP : M=1, N=12
Codec ID : V_MPEG4/ISO/AVC
Duration : 1 h 53 min
Bit rate mode : Variable
Bit rate : 32.6 Mb/s
Maximum bit rate : 35.0 Mb/s
Width : 1 920 pixels
Height : 1 080 pixels
Display aspect ratio : 16:9
Frame rate mode : Constant
Frame rate : 23.976 (24000/1001) FPS
Color space : YUV
Chroma subsampling : 4:2:0
Bit depth : 8 bits
Scan type : Progressive
Bits/(Pixel*Frame) : 0.655
Stream size : 25.8 GiB (93%)
Default : Yes
Forced : No

Audio #1
ID : 2
Format : AC-3
Format/Info : Audio Coding 3
Commercial name : Dolby Digital
Codec ID : A_AC3
Duration : 1 h 53 min
Bit rate mode : Constant
Bit rate : 192 kb/s
Channel(s) : 2 channels
Channel positions : Front: L R
Sampling rate : 48.0 kHz
Frame rate : 31.250 FPS (1536 SPF)
Bit depth : 16 bits
Compression mode : Lossy
Stream size : 156 MiB (1%)
Title : MVO (NLO-TV)
Language : Ukrainian
Service kind : Complete Main
Default : Yes
Forced : No

Audio #2
ID : 3
Format : AC-3
Format/Info : Audio Coding 3
Commercial name : Dolby Digital
Codec ID : A_AC3
Duration : 1 h 53 min
Bit rate mode : Constant
Bit rate : 192 kb/s
Channel(s) : 2 channels
Channel positions : Front: L R
Sampling rate : 48.0 kHz
Frame rate : 31.250 FPS (1536 SPF)
Bit depth : 16 bits
Compression mode : Lossy
Stream size : 156 MiB (1%)
Title : MVO (Cine+)
Language : Ukrainian
Service kind : Complete Main
Default : No
Forced : No

Audio #3
ID : 4
Format :
Format/Info : Digital Theater Systems
Format profile : MA / Core
Codec ID : A_DTS
Duration : 1 h 53 min
Bit rate mode : Variable / Constant
Bit rate : 2 171 kb/s / 1 509 kb/s
Channel(s) : 6 channels
Channel positions : Front: L C R, Side: L R, LFE
Sampling rate : 48.0 kHz
Frame rate : 93.750 FPS (512 SPF)
Bit depth : 16 bits
Compression mode : Lossless / Lossy
Stream size : 1.72 GiB (6%)
Title : Оригінал
Language : English
Default : No
Forced : No

Text #1
ID : 5
Format : UTF-8
Codec ID : S_TEXT/UTF8
Codec ID/Info : UTF-8 Plain Text
Duration : 1 h 45 min
Bit rate : 56 b/s
Count of elements : 824
Stream size : 43.4 KiB (0%)
Language : Ukrainian
Default : Yes
Forced : No

Text #2
ID : 6
Format : UTF-8
Codec ID : S_TEXT/UTF8
Codec ID/Info : UTF-8 Plain Text
Duration : 1 h 45 min
Bit rate : 26 b/s
Count of elements : 656
Stream size : 20.2 KiB (0%)
Language : English
Default : No
Forced : No
Скріншоти


Джерело: &
Особиста оцінка: 10 - без зайвих вагань рекомендую всім!

За укр. доріжки подяка п.: slavik_v_z, xslim, Sando7, POMEO, Gelios.


Фріліч (завантажене не впливає на рейтинг)
 Трекер:    Зареєстрований   

Завантажити / скачати фільм українською



відео для новачків



 Зареєстрований:   2018-11-24 17:40
 Розмір:   27.81 GB 
 Оцінка фільму:   6/10 (Голосів: 5)
   
Інші релізи
   Борг (Розплата) / The Debt (2010) 1080p 2xUkr/Eng | Sub Ukr/Eng drop_plz  7 / 0   11.14 GB   2018-08-29 21:01 
   Розплата / The Debt (2010) Ukr/Eng | Sub Ukr/Eng Gelios  3 / 0   1.45 GB   2015-11-29 21:44 
   Борг (Розплата) / The Debt (2010) 720p Eng | Sub Ukr/Eng Dim-ON  1 / 0   4.92 GB   2012-02-25 13:43 
igor911 
Відео Гуртом
Відео Гуртом


З нами з: 18.01.08
Востаннє: 19.01.19
Повідомлень: 11856

2018-03-18 11:16  
kryk-v.ya. написано:
Відео бітрейт: 35 Мб/с
...
мова: англійська
кодек: 5.1
бітрейт: 1509 кб/с

медіаінфо написано:
Overall bit rate : 34.9 Mbps
...
Format profile : MA / Core
Bit rate : Unknown / 1 509 Kbps

необхідно вказати реальний бітрейт відеоряду та оригінальної доріжки (тут вона не , а -HD MA). Вони вірно відображатимуться у звіті медіаінфо, якщо муксувати mkvtoolnix'ом останніх версій.

Цитата:
тип: вбудовані (жорсткі) pgs

замінити на "пререндерні" і вказати джерело походження українських субтитрів.

Додано через 7 хвилин 18 секунд:

kryk-v.ya. написано:
Title : багатоголосий
Language : Ukrainian

Побажання на майбутнє:
- в назву доріжки додавати також телеканал/джерело укр.доріжки, наприклад "багатоголосий, NLO.TV";
- додавати також обкладинку (за наявності - українську) - вкладка mkvtoolnix'а "Вкладення", файл обкладинки/постера у форматі jpg або png з назвою "cover" і розміром 600 пікселів по ширині (детальніше)

Додано через 1 хвилину 35 секунд:

Також, треба замінити скріншоти - вони мають бути оригінального розміру (1920х1080, зараз 1280х800) у форматі png.

Додано через 4 хвилини 6 секунд:

Вітаю з першим релізом!

Додано через 38 хвилин 24 секунди:

kryk-v.ya. написано:
бітрейт: 34.9 Мб/с

це загальний бітрей (відео+звук+саби), треба вказати бітрейт відео.
kryk-v.ya. написано:
бітрейт: 1509 кб/с

це бітрейт ядра -HD MA, треба вказати повний бітрейт доріжки.

+ замінити останній скрін 1280х800

kryk-v.ya. написано:
звідси-https://toloka.to/t70038

я мав на увазі, що треба поставити емблемку ДВД - бо субтитри взято з ліцензії ДВД (https://toloka.to/t33472)

waldi-hurtom 
VIP


З нами з: 07.10.12
Востаннє: 19.01.19
Повідомлень: 885

2018-03-18 15:00  
Досить нудний фільм. Єдиний плюс - що агенти Мосада показані не суперменами, але звичайними людьми, брехунами та кар'єристами. Достатньо подивитись SD версію, 27 Гбайт не вартий. 2 з 10
Sacramental 
Частий відвідувач


З нами з: 24.11.16
Востаннє: 19.01.19
Повідомлень: 43

2018-03-22 20:51  
У мене одного розсинхрон звукової доріжки з відео???
Oleksa9 
VIP


З нами з: 17.05.12
Востаннє: 18.01.19
Повідомлень: 332

2018-03-25 12:15  
Відмінне кіно! Правдиво показано, що столиця України не Київ, а Кієв, й чудово відтворена місцева "патріотична" шизофренія: синьо-жовтий стяг, написи на табличках українською, але цілковита відсутність потреби спілкуватися ЄДИНОЮ державною мовою, що на час зйомок фільму, що на четвертий рік війни.... 10/10.
[email protected] 
Поважний учасник


З нами з: 24.03.17
Востаннє: 19.01.19
Повідомлень: 229

2018-10-26 22:00  
Гарний фільм
Lyolic 
VIP


З нами з: 04.08.09
Востаннє: 18.01.19
Повідомлень: 338

2018-11-23 15:49  
Sacramental
Є розсинхрон. На одну секунду.
Ну а по фільму, цікаво, непогано знято, абсолютно не шкода часу на перегляд Happy

kryk-v.ya. 
VIP


З нами з: 14.02.14
Востаннє: 19.01.19
Повідомлень: 862

2018-11-24 17:41  
торент оновлено, додав доріжку від Cine+.
igor911 
Відео Гуртом
Відео Гуртом


З нами з: 18.01.08
Востаннє: 19.01.19
Повідомлень: 11856

2018-11-24 21:00  
kryk-v.ya. написано:
торент оновлено, додав доріжку від Cine+

Lyolic написано:
Є розсинхрон

розсинхрон усунуто?

kryk-v.ya. 
VIP


З нами з: 14.02.14
Востаннє: 19.01.19
Повідомлень: 862

2018-11-24 21:21  
igor911
так.
п.с.там не було розсинхрону.

Lyolic 
VIP


З нами з: 04.08.09
Востаннє: 18.01.19
Повідомлень: 338

2018-11-25 01:48  
kryk-v.ya. написано:
п.с.там не було розсинхрону.

Навіщо ж так категорично )))
Може не у всіх плеєрах, але був. Зараз новий гляну.

Lyolic 
VIP


З нами з: 04.08.09
Востаннє: 18.01.19
Повідомлень: 338

2018-11-25 05:09  
Lyolic написано:
Зараз новий гляну.

Обидві з розсинхроном. Оригінал нормально. PotPlayer

Ваш часовий пояс: GMT + 2 Години

Нова тема   Відповісти