Енчантімалс. Рідний дім / Enchantimals Finding Home (2017) 720p-mini

Нові коментарі

Нова тема   Відповісти
Автор Повідомлення
urij546724 
Відео Гуртом - фільмокрай
Відео Гуртом - фільмокрай


З нами з: 16.03.10
Востаннє: 05.03.21
Повідомлень: 5772

2018-03-17 22:34  
Енчантімалс. Рідний дім / Enchantimals Finding Home (2017) 720p-mini



Жанр: анімація, сімейний, фентезі
Країна: США



Кіностудія / кінокомпанія: Mattel Creations
Режисер: Карен Джей Ллойд / Karen J. Lloyd
Актори: Казумі Еванс (Kazumi Evans), Сабріна Пітр (Sabrina Pitre), Ребекка Шойкет (Rebecca Shoichet), Діана Кааріна (Diana Kaarina), Маріка Хендрікс (Maryke Hendrikse)...

Сюжет:
Країна Еверваілд прекрасна як сни, що приходять до нас по ночах. Тут вас чекають всілякі дива і чари. Це теплий, сонячний край, хоча є тут і місця холодні як ріжок з пломбіром. Високі скелі і плоскі як млинці рівнини, водойми глибокі як колодязь і жаркі пляжі, які нагадують гігантські пісочниці. У самому центрі цього достатку знаходиться Вандервуд - казковий ліс, де живуть чарівні істоти Енчантімалс.


Тривалість: 00:57:39
Якість: 720p-mini
Відео:
кодек:
розмір кадру: 1280 х 720
бітрейт: 1935 кб/с
частота кадрів: 25 к/с (fps)

Аудіо #1:
мова: українська
переклад: професійний дубльований
кодек: 2.0
бітрейт: 192 кб/с
запис звуку з каналу: ТЕТ

На час створення релізу оригінальної доріжки для цього відео не було у відкритому доступі.
Medis info:
General
Format : MPEG-4
Format profile : Base Media
Codec ID : isom
File size : 869 MiB
Duration : 57mn 39s
Overall bit rate : 2 108 Kbps
Encoded date : UTC 2018-03-14 09:09:30
Tagged date : UTC 2018-03-14 09:09:30
Writing application : Yamb 2.1.0.0 [http://yamb.unite-video.com]

Video
ID : 1
Format : AVC
Format/Info : Advanced Video Codec
Format profile : [email protected]
Format settings, CABAC : No
Format settings, ReFrames : 2 frames
Format settings, GOP : M=1, N=50
Codec ID : avc1
Codec ID/Info : Advanced Video Coding
Duration : 57mn 39s
Bit rate : 1 935 Kbps
Maximum bit rate : 4 164 Kbps
Width : 1 280 pixels
Height : 720 pixels
Display aspect ratio : 16:9
Frame rate mode : Constant
Frame rate : 25.000 fps
Color space : YUV
Chroma subsampling : 4:2:0
Bit depth : 8 bits
Scan type : Progressive
Bits/(Pixel*Frame) : 0.084
Stream size : 790 MiB (91%)
Writing library : core 146
Encoding settings : cabac=0 / ref=2 / deblock=1:0:0 / analyse=0x1:0x111 / me=hex / subme=6 / psy=1 / psy_rd=1.00:0.00 / mixed_ref=1 / me_range=16 / chroma_me=1 / trellis=1 / 8x8dct=0 / cqm=0 / deadzone=21,11 / fast_pskip=1 / chroma_qp_offset=-2 / threads=12 / lookahead_threads=2 / sliced_threads=0 / nr=0 / decimate=1 / interlaced=0 / bluray_compat=0 / constrained_intra=0 / bframes=0 / weightp=0 / keyint=50 / keyint_min=26 / scenecut=0 / intra_refresh=0 / rc_lookahead=30 / rc=cbr / mbtree=1 / bitrate=1935 / ratetol=1.0 / qcomp=0.60 / qpmin=0 / qpmax=69 / qpstep=4 / vbv_maxrate=1935 / vbv_bufsize=3870 / nal_hrd=none / filler=0 / ip_ratio=1.40 / aq=1:1.00
Tagged date : UTC 2018-03-14 09:10:27

Audio
ID : 2
Format : AC-3
Format/Info : Audio Coding 3
Mode extension : CM (complete main)
Format settings, Endianness : Big
Codec ID : ac-3
Duration : 57mn 39s
Bit rate mode : Constant
Bit rate : 192 Kbps
Channel count : 2 channels
Channel positions : Front: L R
Sampling rate : 48.0 KHz
Bit depth : 16 bits
Compression mode : Lossy
Stream size : 79.2 MiB (9%)
Language : Ukrainian
Encoded date : UTC 2018-03-14 09:10:14
Tagged date : UTC 2018-03-14 09:10:27
Скріншоти:





Трейлер:
Семпл
Джерело 1_________Джерело 2_________Джерело 3_________Джерело 4_________Джерело 5
У випадку, якщо з усіх джерел семпл видалять, прохання повідомити мені у ПРИВАТ


Подяка:

1. Пану Neytreenor за запис звуку з ТБ.


Джерело:


 Трекер:    Зареєстрований   

Завантажити / скачати мультфільм українською



відео для новачків



 Зареєстрований:   2018-03-17 22:34
 Розмір:   869 MB 
 Оцінка мультфільму:   8.8/10 (Голосів: 8)
 Прохання залишати коментарі і не тікати з роздачі.
   
Ваш часовий пояс: GMT + 2 Години

Нова тема   Відповісти