Бібліотекарі (Сезони 1-4) / The Librarians (Seasons 1-4) (2014-2017) // 720р Ukr/Eng | Новий канал

Нові коментарі

Нова тема   Відповісти
Автор Повідомлення
Anonymous 







2018-03-17 12:56  
Бібліотекарі (Сезони 1-4) / The Librarians (Seasons 1-4) (2014-2017) // 720р Ukr/Eng

Бібліотекарі (Сезони 1-4) / The Librarians (Seasons 1-4) (2014-2017) // 720р Ukr/Eng | Новий канал


Жанр: пригодницький, фантастика
Країна: США



Кінокомпанія: Electric Entertainment, TNT
Режисер: Дін Девлін (Dean Devlin)
Актори: Ноа Вайл (Noah Wyle), Крістіан Кейн (Christian Kane), Ребека Ромін (Rebecca Romijn), Джон Кім (John Kim), Лінді Бут (Lindy Booth) та інші

Сюжет:
«Бібліотекарі» – це продовження мегапопулярної однойменної повнометражної трилогії. Творці серіалу взяли з неї все найкраще, додали трохи пригод у стилі «Індіани Джонса», розслідувань Шерлока Холмса, жахів і містики з містечка «Сонна лощина». А, крім того, звернулися до теми магічних артефактів.

Сюжет закручений навколо могутньої і таємничої організації, яка розташовується під будівлею нічим не примітної нью-йоркської публічної бібліотеки. Мета її – збирати по всьому світу потужні артефакти, що увібрали в себе старовинну магію, і стежити, щоб вони не потрапили до поганих рук.

Ви знову зустрінетесь із хранителем магічної бібліотеки Флінном Карсоном. Головному Бібліотекарю складно й нудно працювати на самоті. І він набирає веселу й безстрашну команду відчайдухів, які стають його наступниками…

Тривалість: 1 серія: ~42 хв. (цілком серій: 42)
Перелік серій
Сезон 1
01. And the Crown of King Arthur
02. And the Sword in the Stone
03. And the Horns of a Dilemma
04. And Santa's Midnight Run
05. And the Apple of Discord
06. And the Fables of Doom
07. And the Rule of Three
08. And the Heart of Darkness
09. And the City of Light
10. And the Loom of Fate
Сезон 2
01. And the Drowned Book
02. And the Broken Staff
03. And What Lies Beneath the Stones
04. And the Cost of Education
05. And the Hollow Men
06. And the Infernal Contract
07. And the Image of Image
08. And the Point of Salvation
09. And the Happily Ever Afters
10. And the Final Curtain
Сезон 3
01. And the Rise of Chaos
02. And the Fangs of Death
03. And the Reunion of Evil
04. And the Self-Fulfilling Prophecy
05. And the Tears of a Clown
06. And the Trial of the Triangle
07. And the Curse of Cindy
08. And the Eternal Question
09. And the Fatal Separation
10. And the Wrath of Chaos
Сезон 4
01. And the Dark Secret
02. And the Steal of Fortune
03. And the Christmas Thief
04. And the Silver Screen
05. And the Bleeding Crown
06. And the Graves of Time
07. And the Disenchanted Forest
08. And the Hidden Sanctuary
09. And a Town Called Feud
10. And Some Dude Named Jeff
11. And the Trial of the One
12. And the Echoes of Memorys
Якість: / (4-й сезон) / (серії 1x01-1x02)
Відео:
кодек:
розмір кадру: 1280 х 716 () / 1280 x 720
бітрейт: ~4000 кб/с

Аудіо # 1:
мова: українська
переклад: багатоголосий закадровий
кодек: 2.0
бітрейт: 192 кб/с
примітка: звук до сезонів 1, 2, 4 взято з цих роздач: сезон 1, сезон 2, сезон 4

Аудіо # 2:
мова: англійська
переклад: оригінал
кодек: 5.1
бітрейт: 384 кб/с / 448 кб/с ()

Джерело озвучення:


Субтитри (форсовані, на прадавні мови та інше):
мова: українська
тип: програмні (м'які)
формат: *.
переклад: Новий канал
Info
(1x01-1x02)
General
Unique ID : 279119200238094898358619740594260470452 (0xD1FC670F6E2286ABBCB8D51546E0EAB4)
Complete name : E:\Support\The Librarians [720p, Ukr, Eng]\Season 1\The.Librarians.s01e01-02..720p.Ukr.Eng.
Format :
Format version : Version 4 / Version 2
File size : 2.51 GiB
Duration : 1 h 28 min
Overall bit rate : 4 058 kb/s
Encoded date : UTC 2018-03-08 21:12:29
Writing application : v20.0.0 ('I Am The Sun') 64-bit
Writing library : libebml v1.3.5 + v1.4.8

Video
ID : 1
Format : AVC
Format/Info : Advanced Video Codec
Format profile : [email protected]
Format settings : CABAC / 5 Ref Frames
Format settings, CABAC : Yes
Format settings, ReFrames : 5 frames
Codec ID : V_MPEG4/ISO/AVC
Duration : 1 h 28 min
Bit rate : 3 416 kb/s
Width : 1 280 pixels
Height : 720 pixels
Display aspect ratio : 16:9
Frame rate mode : Constant
Frame rate : 23.976 (24000/1001) FPS
Color space : YUV
Chroma subsampling : 4:2:0
Bit depth : 8 bits
Scan type : Progressive
Bits/(Pixel*Frame) : 0.155
Stream size : 2.11 GiB (84%)
Writing library : core 142 r2491 24e4fed
Encoding settings : cabac=1 / ref=5 / deblock=1:0:0 / analyse=0x3:0x113 / me=umh / subme=8 / psy=1 / psy_rd=1.00:0.00 / mixed_ref=1 / me_range=16 / chroma_me=1 / trellis=1 / 8x8dct=1 / cqm=0 / deadzone=21,11 / fast_pskip=1 / chroma_qp_offset=-2 / threads=18 / lookahead_threads=3 / sliced_threads=0 / nr=0 / decimate=1 / interlaced=0 / bluray_compat=0 / constrained_intra=0 / bframes=3 / b_pyramid=2 / b_adapt=2 / b_bias=0 / direct=3 / weightb=1 / open_gop=0 / weightp=2 / keyint=250 / keyint_min=23 / scenecut=40 / intra_refresh=0 / rc_lookahead=50 / rc=crf / mbtree=1 / crf=18.0 / qcomp=0.60 / qpmin=0 / qpmax=69 / qpstep=4 / ip_ratio=1.40 / aq=1:1.00
Language : English
Default : Yes
Forced : No
Color range : Limited
Matrix coefficients : BT.709

Audio #1
ID : 2
Format : AC-3
Format/Info : Audio Coding 3
Codec ID : A_AC3
Duration : 1 h 28 min
Bit rate mode : Constant
Bit rate : 192 kb/s
Channel(s) : 2 channels
Channel positions : Front: L R
Sampling rate : 48.0 kHz
Frame rate : 31.250 FPS (1536 SPF)
Bit depth : 16 bits
Compression mode : Lossy
Stream size : 122 MiB (5%)
Title : Новий
Language : Ukrainian
Service kind : Complete Main
Default : Yes
Forced : No

Audio #2
ID : 3
Format : AC-3
Format/Info : Audio Coding 3
Codec ID : A_AC3
Duration : 1 h 28 min
Bit rate mode : Constant
Bit rate : 448 kb/s
Channel(s) : 6 channels
Channel positions : Front: L C R, Side: L R, LFE
Sampling rate : 48.0 kHz
Frame rate : 31.250 FPS (1536 SPF)
Bit depth : 16 bits
Compression mode : Lossy
Stream size : 284 MiB (11%)
Language : English
Service kind : Complete Main
Default : No
Forced : No
(1x03-3x10)
General
Unique ID : 227414471086997588294765660199780166979 (0xAB166F185A4D776CE83D4DF46BE52D43)
Complete name : E:\Support\The Librarians [720p, Ukr, Eng]\Season 3\The.Librarians.s03e01..720p.Ukr.Eng.
Format :
Format version : Version 4 / Version 2
File size : 1.37 GiB
Duration : 42 min 12 s
Overall bit rate : 4 654 kb/s
Encoded date : UTC 2018-03-15 19:13:04
Writing application : v20.0.0 ('I Am The Sun') 64-bit
Writing library : libebml v1.3.5 + v1.4.8

Video
ID : 1
Format : AVC
Format/Info : Advanced Video Codec
Format profile : [email protected]
Format settings : 2 Ref Frames
Format settings, CABAC : No
Format settings, ReFrames : 2 frames
Codec ID : V_MPEG4/ISO/AVC
Duration : 42 min 11 s
Bit rate : 4 076 kb/s
Width : 1 280 pixels
Height : 716 pixels
Display aspect ratio : 16:9
Frame rate mode : Constant
Frame rate : 23.976 (23976/1000) FPS
Color space : YUV
Chroma subsampling : 4:2:0
Bit depth : 8 bits
Scan type : Progressive
Bits/(Pixel*Frame) : 0.186
Stream size : 1.20 GiB (88%)
Language : English
Default : Yes
Forced : Yes
Color range : Limited
Color primaries : BT.709
Transfer characteristics : BT.709
Matrix coefficients : BT.709

Audio #1
ID : 2
Format : AC-3
Format/Info : Audio Coding 3
Codec ID : A_AC3
Duration : 42 min 11 s
Bit rate mode : Constant
Bit rate : 192 kb/s
Channel(s) : 2 channels
Channel positions : Front: L R
Sampling rate : 48.0 kHz
Frame rate : 31.250 FPS (1536 SPF)
Bit depth : 16 bits
Compression mode : Lossy
Stream size : 58.0 MiB (4%)
Title : Новий
Language : Ukrainian
Service kind : Complete Main
Default : Yes
Forced : No

Audio #2
ID : 3
Format : AC-3
Format/Info : Audio Coding 3
Codec ID : A_AC3
Duration : 42 min 12 s
Bit rate mode : Constant
Bit rate : 384 kb/s
Channel(s) : 6 channels
Channel positions : Front: L C R, Side: L R, LFE
Sampling rate : 48.0 kHz
Frame rate : 31.250 FPS (1536 SPF)
Bit depth : 16 bits
Compression mode : Lossy
Stream size : 116 MiB (8%)
Language : English
Service kind : Complete Main
Default : No
Forced : No

Text
ID : 4
Format :
Codec ID : S_TEXT/
Codec ID/Info : Advanced Sub Station Alpha
Duration : 6 s 360 ms
Bit rate : 188 b/s
Count of elements : 2
Compression mode : Lossless
Stream size : 150 Bytes (0%)
Language : Ukrainian
Default : Yes
Forced : Yes
(4x01-4x12)
General
Unique ID : 235752092074383897629107881338735428558 (0xB15C338C2F4AA73DFF5FA99ACF8C03CE)
Complete name : E:\Support\The Librarians [720p, Ukr, Eng]\Season 4\The.Librarians.s04e01..720p.Ukr.Eng.
Format :
Format version : Version 4 / Version 2
File size : 1.45 GiB
Duration : 42 min 25 s
Overall bit rate : 4 897 kb/s
Encoded date : UTC 2018-06-07 20:34:10
Writing application : v23.0.0 ('The Bride Said No') 64-bit
Writing library : libebml v1.3.6 + v1.4.9

Video
ID : 1
Format : AVC
Format/Info : Advanced Video Codec
Format profile : [email protected]
Format settings : CABAC / 16 Ref Frames
Format settings, CABAC : Yes
Format settings, ReFrames : 16 frames
Codec ID : V_MPEG4/ISO/AVC
Duration : 42 min 25 s
Bit rate : 4 319 kb/s
Width : 1 280 pixels
Height : 720 pixels
Display aspect ratio : 16:9
Frame rate mode : Constant
Frame rate : 23.976 (24000/1001) FPS
Color space : YUV
Chroma subsampling : 4:2:0
Bit depth : 8 bits
Scan type : Progressive
Bits/(Pixel*Frame) : 0.195
Stream size : 1.28 GiB (88%)
Writing library : core 148 r2708 86b7198
Encoding settings : cabac=1 / ref=16 / deblock=1:0:0 / analyse=0x3:0x133 / me=umh / subme=10 / psy=1 / psy_rd=1.00:0.00 / mixed_ref=1 / me_range=24 / chroma_me=1 / trellis=2 / 8x8dct=1 / cqm=0 / deadzone=21,11 / fast_pskip=1 / chroma_qp_offset=-2 / threads=6 / lookahead_threads=1 / sliced_threads=0 / nr=0 / decimate=1 / interlaced=0 / bluray_compat=0 / constrained_intra=0 / bframes=8 / b_pyramid=2 / b_adapt=2 / b_bias=0 / direct=3 / weightb=1 / open_gop=0 / weightp=2 / keyint=240 / keyint_min=24 / scenecut=40 / intra_refresh=0 / rc_lookahead=60 / rc=crf / mbtree=1 / crf=15.0 / qcomp=0.60 / qpmin=0 / qpmax=69 / qpstep=4 / ip_ratio=1.40 / aq=1:1.00
Default : Yes
Forced : No
Color range : Limited
Color primaries : BT.709
Transfer characteristics : BT.709
Matrix coefficients : BT.709

Audio #1
ID : 2
Format : AC-3
Format/Info : Audio Coding 3
Codec ID : A_AC3
Duration : 42 min 25 s
Bit rate mode : Constant
Bit rate : 192 kb/s
Channel(s) : 2 channels
Channel positions : Front: L R
Sampling rate : 48.0 kHz
Frame rate : 31.250 FPS (1536 SPF)
Bit depth : 16 bits
Compression mode : Lossy
Delay relative to video : -5 ms
Stream size : 58.3 MiB (4%)
Title : Новий
Language : Ukrainian
Service kind : Complete Main
Default : Yes
Forced : No

Audio #2
ID : 3
Format : AC-3
Format/Info : Audio Coding 3
Codec ID : A_AC3
Duration : 42 min 24 s
Bit rate mode : Constant
Bit rate : 384 kb/s
Channel(s) : 6 channels
Channel positions : Front: L C R, Side: L R, LFE
Sampling rate : 48.0 kHz
Frame rate : 31.250 FPS (1536 SPF)
Bit depth : 16 bits
Compression mode : Lossy
Delay relative to video : -5 ms
Stream size : 117 MiB (8%)
Language : English
Service kind : Complete Main
Default : No
Forced : No
Скріншоти

:



:



:


Джерело:
Особиста оцінка: 9 - легка й весела фантастика





Срібний реліз (на рейтинг впливає 50% завантаженого)
 Трекер:    Зареєстрований   

Завантажити / скачати серіал українською



відео для новачків



 Зареєстрований:   2018-06-10 15:06
 Розмір:   58.06 GB 
 Оцінка серіалу:   9.7/10 (Голосів: 11)
   
11FrYkT 
Модератор відео


З нами з: 20.02.11
Востаннє: 04.12.20
Повідомлень: 7051

2018-03-18 09:41  
Anonymous , чому разом не додали озвучку від Байбако?
Anonymous 







2018-03-18 09:51  
11FrYkT написано:
чому разом не додали озвучку від Байбако?

Ну, кілька причин:
    роздачі з Байбако усе одно поглинатися не будуть, бо авторські
    так розмір менше
    перші дві серії несумісні з озвученням Байбако, а переробити звук Байбако під це відео - та ще морока

gyrami 
Новенький


З нами з: 26.12.13
Востаннє: 16.03.20
Повідомлень: 12

2018-04-30 18:37  
Дайте швидкості !!! За пів години закачало 48 Мб...
Anonymous 







2018-04-30 19:32  
gyrami написано:
Дайте швидкості !!! За пів години закачало 48 Мб...

Власне, це на 48 Мб більше, аніж мало б бути. Піднімай рейтинг (тут про те, що воно таке і нащо потрібне https://toloka.to/t40110).

Anonymous 







2018-06-10 15:08  
Додав четвертий сезон
igor911 
Модератор відео


З нами з: 18.01.08
Востаннє: 04.12.20
Повідомлень: 15090

2018-06-10 16:05  
MI написано:
Format settings, ReFrames : 16 frames
Width : 1 280 pixels
Height : 720 pixels

Для повнокадрового 720p треба слідкувати, щоб ReFrames не перевищувало 9, інакше будуть проблеми з сумісністю з телеками та "залізяками". (В загальному випадку добуток ШхВхReFrames має вкладатись до 9000000, тут 14745600)

Maksdvir 
Новенький


З нами з: 04.01.18
Востаннє: 14.11.20
Повідомлень: 10

2018-06-20 08:29  
Люди прийдіть Хтось на роздачу а то ніяк скачати не можу
Anonymous 







2018-06-20 08:53  
Роздаю після 8-ї ввечері і трохи зранку.
igor911 
Модератор відео


З нами з: 18.01.08
Востаннє: 04.12.20
Повідомлень: 15090

2018-06-20 09:05  
Maksdvir написано:
Люди прийдіть Хтось на роздачу а то ніяк скачати не можу

Maksdvir написано:
Рейтинг: 0.02
Активні торренти:
Роздає - немає

Сашко_Панса 
Частий відвідувач


З нами з: 10.12.16
Востаннє: 03.12.20
Повідомлень: 27

2020-02-08 20:52  
Шкода, що знову Україну проєктують, як щось середнє між Польщею та Росією. Начебто й дія відбувається на Поліссі, в Чорнобилі, зазначили, що це Україна... (6 серія 4 сезону) але написи або польською, або російською... і все крутиться навколо російської історії, міфології... Распутін, Кащєй Бєзсмєртний... буцімто немає цікавих сторінок з української історії, автентичних міфів і казок, які можна було обіграти, якщо вже герої серіалу опинилися в Україні. Єдина ж згадка про Україну та українців - це те, що українські військові - злі, а чиновники - брехливі... Прикро Confused
Ваш часовий пояс: GMT + 2 Години

Нова тема   Відповісти