Червона планета / Red Planet (2000) 1080p Ukr/Eng | Sub Eng

Нові коментарі

Нова тема   Відповісти
Автор Повідомлення
staf777 
Відео Гуртом - підтримка та поширення
Відео Гуртом - підтримка та поширення


З нами з: 16.11.16
Востаннє: 23.04.19
Повідомлень: 2284

2018-03-17 13:54  
Червона планета / Red Planet (2000) 1080p Ukr/Eng | Sub Eng

Червона планета / Red Planet (2000) 1080p Ukr/Eng | Sub Eng


Жанр: пригодницький, екшн, фантастика
Країна: США, Австралія



Кінокомпанія: Warner Bros. Pictures, Village Roadshow Pictures, The Canton Company, NPV Entertainment
Режисер: Ентоні Гоффман / Antony Hoffman
Актори: Ентоні Гоффман / Antony Hoffman Актори: Вел Кілмер / Val Kilmer, Керрі-Енн Мосс / Carrie-Anne Moss, Том Сайзмор / Tom Sizemore, Бенджамін Бретт / Benjamin Bratt, Саймон Бейкер / Simon Baker, Теренс Стемп / Terence Stamp, Джессіка Мортон / Jessica Morton, Керолайн Боссі / Caroline Bossi, Боб Нілл / Bob Neill, Ніл Россі / Neil Ross та інші

Сюжет:
У 2056 році Земля знаходиться на межі екологічної катастрофи в результаті забруднення і перенаселення. Тим часом автоматичні міжпланетні зонди розкидали по Марсу водорості для виробництва кисню - перша стадія терраформування червоної планети. Через 12 років на Землі дізнаються, що рівень виробленого кисню нез'ясовно впав. Екіпажу корабля «Марс-1» належить не тільки стати першими людьми, які ступили на іншу планету, а й дізнатися причину збою, адже Марс залишається єдиною надією врятувати людство. Однак після піврічного польоту до мети, при самій посадці виникають проблеми. Тепер перед астронавтами стоїть питання - як полетіти з цієї планети.


Тривалість: 01:46:30
Якість:
Відео:
кодек:
розмір кадру: 1920x800
бітрейт: 13.3 Mб/с

Аудіо # 1:
мова: українська
переклад: двоголосий закадровий
кодек: 5.1
бітрейт: 384 кб/с

Аудіо # 2:
мова: англійська
переклад: оригінал
кодек: 5.1
бітрейт: 1509 кб/с

Джерело озвучення:


Субтитри:
мова: англійська
тип: програмні (м'які)
формат: *.srt
Info
General
Unique ID : 252907279836643063187723880227347665476 (0xBE442B9B57BA64DA840FE06315689244)
Complete name : H:\Майбутні релізи\ Red Planet (2000) 1080p [Ukr Eng][Sub Eng][Hurtom].
Format :
Format version : Version 4 / Version 2
File size : 11.3 GiB
Duration : 1 h 46 min
Overall bit rate : 15.2 Mb/s
Movie name : Red Planet (2000) 1080p [Ukr Eng][Sub Eng][Hurtom]
Encoded date : UTC 2018-03-17 09:57:01
Writing application : v9.8.0 ('Kuglblids') 64bit
Writing library : libebml v1.3.4 + v1.4.5

Video
ID : 1
Format : AVC
Format/Info : Advanced Video Codec
Format profile : [email protected]
Format settings, CABAC : Yes
Format settings, ReFrames : 4 frames
Codec ID : V_MPEG4/ISO/AVC
Duration : 1 h 46 min
Bit rate : 13.3 Mb/s
Width : 1 920 pixels
Height : 800 pixels
Display aspect ratio : 2.40:1
Frame rate mode : Constant
Frame rate : 23.976 (24000/1001) FPS
Color space : YUV
Chroma subsampling : 4:2:0
Bit depth : 8 bits
Scan type : Progressive
Bits/(Pixel*Frame) : 0.362
Stream size : 9.92 GiB (88%)
Writing library : core 146 r2538 121396c
Encoding settings : cabac=1 / ref=4 / deblock=1:-3:-2 / analyse=0x3:0x113 / me=umh / subme=11 / psy=1 / psy_rd=1.00:0.15 / mixed_ref=1 / me_range=32 / chroma_me=1 / trellis=2 / 8x8dct=1 / cqm=0 / deadzone=21,11 / fast_pskip=0 / chroma_qp_offset=-3 / threads=6 / lookahead_threads=1 / sliced_threads=0 / nr=0 / decimate=1 / interlaced=0 / bluray_compat=0 / constrained_intra=0 / bframes=8 / b_pyramid=2 / b_adapt=2 / b_bias=0 / direct=1 / weightb=1 / open_gop=0 / weightp=2 / keyint=230 / keyint_min=23 / scenecut=40 / intra_refresh=0 / rc_lookahead=40 / rc=crf / mbtree=0 / crf=16.8 / qcomp=0.60 / qpmin=0 / qpmax=69 / qpstep=4 / vbv_maxrate=62500 / vbv_bufsize=78125 / crf_max=0.0 / nal_hrd=none / filler=0 / ip_ratio=1.40 / pb_ratio=1.30 / aq=1:1.00
Language : English
Default : Yes
Forced : No

Audio #1
ID : 2
Format : AC-3
Format/Info : Audio Coding 3
Mode extension : CM (complete main)
Format settings, Endianness : Big
Codec ID : A_AC3
Duration : 1 h 46 min
Bit rate mode : Constant
Bit rate : 384 kb/s
Channel(s) : 6 channels
Channel positions : Front: L C R, Side: L R, LFE
Sampling rate : 48.0 kHz
Frame rate : 31.250 FPS (1536 spf)
Bit depth : 16 bits
Compression mode : Lossy
Stream size : 292 MiB (3%)
Title : [UA-DVO-NEW CANAL]
Language : Ukrainian
Default : Yes
Forced : Yes

Audio #2
ID : 3
Format :
Format/Info : Digital Theater Systems
Mode : 16
Format settings, Endianness : Big
Codec ID : A_DTS
Duration : 1 h 46 min
Bit rate mode : Constant
Bit rate : 1 509 kb/s
Channel(s) : 6 channels
Channel positions : Front: L C R, Side: L R, LFE
Sampling rate : 48.0 kHz
Frame rate : 93.750 FPS (512 spf)
Bit depth : 24 bits
Compression mode : Lossy
Stream size : 1.12 GiB (10%)
Title : original
Language : English
Default : No
Forced : No

Text
ID : 4
Format : UTF-8
Codec ID : S_TEXT/UTF8
Codec ID/Info : UTF-8 Plain Text
Duration : 1 h 45 min
Bit rate : 50 b/s
Count of elements : 1142
Stream size : 39.4 KiB (0%)
Title : английские
Language : English
Default : No
Forced : No

Menu
00:00:00.000 : :Chapter 01
00:03:37.842 : :Chapter 02
00:06:21.422 : :Chapter 03
00:08:14.117 : :Chapter 04
00:10:42.098 : :Chapter 05
00:14:51.890 : :Chapter 06
00:18:35.531 : :Chapter 07
00:23:05.133 : :Chapter 08
00:26:15.614 : :Chapter 09
00:27:44.663 : :Chapter 10
00:31:12.579 : :Chapter 11
00:35:11.818 : :Chapter 12
00:39:45.632 : :Chapter 13
00:44:43.013 : :Chapter 14
00:49:30.926 : :Chapter 15
00:51:53.318 : :Chapter 16
00:55:38.376 : :Chapter 17
00:58:19.454 : :Chapter 18
01:02:37.336 : :Chapter 19
01:06:52.174 : :Chapter 20
01:08:39.657 : :Chapter 21
01:11:26.240 : :Chapter 22
01:13:33.575 : :Chapter 23
01:16:01.055 : :Chapter 24
01:19:40.024 : :Chapter 25
01:23:35.260 : :Chapter 26
01:27:26.991 : :Chapter 27
01:30:04.649 : :Chapter 28
01:34:50.975 : :Chapter 29
01:40:46.290 : :Chapter 30
01:42:18.715 : :Chapter 31
01:46:29.091 : :Chapter 32
Скріншоти



Звукова доріжка - з релізу пана Lan
Джерело:
Особиста оцінка: 8 - мені сподобалося


Срібний реліз (на рейтинг впливає 50% завантаженого)
 Трекер:    Зареєстрований   

Завантажити / скачати фільм українською



відео для новачків



 Зареєстрований:   2018-03-17 13:54
 Розмір:   11.33 GB 
 Оцінка фільму:   9.7/10 (Голосів: 7)
   
Інші релізи
   Червона планета / Red Planet (2000) AVC Ukr/Eng | Sub Eng staf777  5 / 0   2.1 GB   2018-07-26 17:50 
   Червона планета / Red Planet (2000) 720p Ukr/Eng | Sub Eng xfsthe  1 / 0   4.47 GB   2012-02-09 14:44 
   Червона планета / Red Planet (2000) Ukr/Eng | Sub Eng Lan  4 / 0   2.18 GB   2011-12-01 14:24 
   Червона планета / Red Planet (2000) Ukr/Eng Anonymous  1 / 0   1.6 GB   2009-05-04 18:30 
Volovik 
VIP


З нами з: 21.02.10
Востаннє: 23.04.19
Повідомлень: 413

2018-03-18 10:16  
а в кого можна замовити "Поле битви - Земля" у 1080р?
poolvetrum 
VIP


З нами з: 01.06.14
Востаннє: 20.04.19
Повідомлень: 276

2018-05-20 16:07  
Впевений середнячок свого жанру. Мені фільм радше сподобався. Досить пристойно зроблений, з урахаванням 2000-го року виробництва.
І Керрі-Енн Мосс тут якось особливо гарно виглядає : )
Особиста оцінка фільму: 7/10

Ваш часовий пояс: GMT + 2 Години

Нова тема   Відповісти