Фантастичні звірі і де їх шукати / Fantastic Beasts and Where to Find Them (2016) 1080p H.265 Ukr/Eng | Sub Ukr/Eng

Нові коментарі

Нова тема   Відповісти
Автор Повідомлення
igor302 
Свій


З нами з: 27.10.11
Востаннє: 15.11.18
Повідомлень: 108

2018-03-16 23:17  
Фантастичні звірі і де їх шукати / Fantastic Beasts and Where to Find Them (2016) 1080p H.265 Ukr/Eng | Sub Ukr/Eng
Фантастичні звірі і де їх шукати / Fantastic Beasts and Where to Find Them (2016) 1080p H.265 Ukr/Eng | Sub Ukr/Eng

Жанр: фентезі, пригодницький, сімейний
Країна: США, Велика Британія



Кінокомпанія: Warner Bros., Heyday Films
Режисер: Девід Єйтс
Актори: Едді Редмейн, Кетрін Вотерстон, Ден Фоґлер, Елісон Судол, Колін Фаррелл, Кармен Еджоґо, Езра Міллер, Саманта Мортон, Рон Перлмен, Джон Войтt, Домінік Тіппер, Джонні Депп та інші

Сюжет:
Нью-Йорк 20-х років ХХ століття. Головний герой – Ньют Скамандер, який приїхав в місто спеціально для того, щоб відвідати таємну спільноту чарівниць та чарівників. Він – відомий дослідник і письменник, а підручники його авторства входять до обов'язкової програми Гоґвортсу – знаменитої школи магії. Саме про підручник "Фантастичні звірі і де їх шукати" нам розповідає фільм. Ця книга є переліком фантастичних тварин і містить їх опис. Пориньте у цей чарівний світ!


Тривалість: 02:12:52
Якість: HEVC
Відео:
кодек: H.265 (HEVC)
розмір кадру: 1920 х 800
бітрейт: 4 166 кб/с
бітова глибина: 10 біт
Увага! Перед завантаженням переконайтесь, що ваш пристрій відтворення (та/або ПЗ) підтримують H.265 (HEVC) та 10 біт

Аудіо # 1:
мова: українська
переклад: професійний дубльований | Postmodern
кодек: 5.1
бітрейт: 448 кб/с
примітка:
Bochys https://toloka.to/t84978 написано:
українська доріжка розкладена на псевдо 5.1. У бокових псевдо зроблено мінусовку. У бокових оригінальних замінено оригінальне звучання українським із псевдо доріжок та зібрано заново. Прослуховував двічі оригінального звучання не почув.


Аудіо # 2:
мова: українська
переклад: професійний дубльований | Postmodern
кодек: 2.0
бітрейт: 192 кб/с
Інформація про дубляж
Переклад: Олег Колесніков
Режисер дубляжу: Анна Пащенко
Звукорежисер: Олександр Мостовенко
Ролі дублювали: Олександр Погребняк, Юлія Перенчук, Сергій Солопай, Наталія Денисенко, Андрій Твердак, Олена Узлюк, Андрій Соболєв, Наталія Ярошенко, Борис Георгієвський та інші.

Фільм дубльовано компанією Postmodern на замовлення Кіноманія.
Аудіо # 3:
мова: англійська
переклад: оригінал
кодек: 5.1
бітрейт: 448 кб/с

Субтитри №1:
мова: українська
тип: програмні (м'які)
формат: *.srt

Субтитри №2:
мова: англійська
тип: програмні (м'які)
формат: *.srt
Info
Код:
General
Unique ID                                : 245223376894206338494305023709277623249 (0xB87C4DF13FF79280CE375B5D3FC893D1)
Complete name                            : D:\Video\Fantastic Beasts and Where to Find Them (2016) HEVC 1080p H.265 [UKR_ENG] [Hurtom].
Format                                   :
Format version                           : Version 4 / Version 2
File size                                : 4.88 GiB
Duration                                 : 2 h 12 min
Overall bit rate                         : 5 257 kb/s
Movie name                               : Fantastic Beasts and Where to Find Them (2016) HEVC 1080p H.265 [UKR_ENG] [Hurtom]
Encoded date                             : UTC 2018-03-16 19:29:03
Writing application                      : v20.0.0 ('I Am The Sun') 64-bit
Writing library                          : libebml v1.3.5 + v1.4.8
Cover                                    : Yes
Attachments                              : cover

Video
ID                                       : 1
Format                                   : HEVC
Format/Info                              : High Efficiency Video Coding
Format profile                           : Main [email protected]@Main
Codec ID                                 : V_MPEGH/ISO/HEVC
Duration                                 : 2 h 12 min
Bit rate                                 : 4 166 kb/s
Width                                    : 1 920 pixels
Height                                   : 800 pixels
Display aspect ratio                     : 2.40:1
Frame rate mode                          : Constant
Frame rate                               : 23.976 (24000/1001) FPS
Color space                              : YUV
Chroma subsampling                       : 4:2:0
Bit depth                                : 10 bits
Bits/(Pixel*Frame)                       : 0.113
Stream size                              : 3.87 GiB (79%)
Writing library                          : x265 2.2+35-fe2f2dd96f8c:[Windows][GCC 6.3.0][64 bit] 10bit
Encoding settings                        : cpuid=1173503 / frame-threads=3 / numa-pools=8 / wpp / no-pmode / no-pme / no-psnr / no-ssim / log-level=2 / input-csp=1 / input-res=1920x800 / interlace=0 / total-frames=191145 / level-idc=0 / high-tier=1 / uhd-bd=0 / ref=4 / no-allow-non-conformance / no-repeat-headers / annexb / no-aud / no-hrd / info / hash=0 / no-temporal-layers / open-gop / min-keyint=23 / keyint=250 / bframes=8 / b-adapt=2 / b-pyramid / bframe-bias=0 / rc-lookahead=80 / lookahead-slices=4 / scenecut=40 / no-intra-refresh / ctu=64 / min-cu-size=8 / rect / amp / max-tu-size=32 / tu-inter-depth=1 / tu-intra-depth=1 / limit-tu=0 / rdoq-level=2 / dynamic-rd=0.00 / signhide / no-tskip / nr-intra=0 / nr-inter=0 / no-constrained-intra / no-strong-intra-smoothing / max-merge=3 / limit-refs=3 / limit-modes / me=3 / subme=3 / merange=57 / temporal-mvp / weightp / no-weightb / no-analyze-src-pics / deblock=-3:-3 / no-sao / no-sao-non-deblock / rd=4 / no-early-skip / no-rskip / no-fast-intra / no-tskip-fast / no-cu-lossless / b-intra / rdpenalty=0 / psy-rd=1.00 / psy-rdoq=5.00 / no-rd-refine / analysis-mode=0 / no-lossless / cbqpoffs=-3 / crqpoffs=-3 / rc=crf / crf=18.0 / qcomp=0.60 / qpstep=4 / stats-write=0 / stats-read=0 / ipratio=1.40 / pbratio=1.30 / aq-mode=2 / aq-strength=1.00 / cutree / zone-count=0 / no-strict-cbr / qg-size=32 / no-rc-grain / qpmax=69 / qpmin=0 / sar=0 / overscan=0 / videoformat=5 / range=0 / colorprim=2 / transfer=2 / colormatrix=2 / chromaloc=0 / display-window=0 / max-cll=0,0 / min-luma=0 / max-luma=1023 / log2-max-poc-lsb=8 / vui-timing-info / vui-hrd-info / slices=1 / opt-qp-pps / opt-ref-list-length-pps / no-multi-pass-opt-rps / scenecut-bias=0.05 / no-opt-cu-delta-qp / no-aq-motion / no-hdr
Language                                 : English
Default                                  : Yes
Forced                                   : No

Audio #1
ID                                       : 2
Format                                   : AC-3
Format/Info                              : Audio Coding 3
Codec ID                                 : A_AC3
Duration                                 : 2 h 12 min
Bit rate mode                            : Constant
Bit rate                                 : 448 kb/s
Channel(s)                               : 6 channels
Channel positions                        : Front: L C R, Side: L R, LFE
Sampling rate                            : 48.0 kHz
Frame rate                               : 31.250 FPS (1536 SPF)
Bit depth                                : 16 bits
Compression mode                         : Lossy
Stream size                              : 426 MiB (9%)
Title                                    : iTunes 5.1
Language                                 : Ukrainian
Service kind                             : Complete Main
Default                                  : Yes
Forced                                   : Yes

Audio #2
ID                                       : 3
Format                                   : AC-3
Format/Info                              : Audio Coding 3
Codec ID                                 : A_AC3
Duration                                 : 2 h 12 min
Bit rate mode                            : Constant
Bit rate                                 : 192 kb/s
Channel(s)                               : 2 channels
Channel positions                        : Front: L R
Sampling rate                            : 48.0 kHz
Frame rate                               : 31.250 FPS (1536 SPF)
Bit depth                                : 16 bits
Compression mode                         : Lossy
Stream size                              : 182 MiB (4%)
Title                                    : 2.0 @ 192 kbps
Language                                 : Ukrainian
Service kind                             : Complete Main
Default                                  : No
Forced                                   : No

Audio #3
ID                                       : 4
Format                                   : AC-3
Format/Info                              : Audio Coding 3
Codec ID                                 : A_AC3
Duration                                 : 2 h 12 min
Bit rate mode                            : Constant
Bit rate                                 : 448 kb/s
Channel(s)                               : 6 channels
Channel positions                        : Front: L C R, Side: L R, LFE
Sampling rate                            : 48.0 kHz
Frame rate                               : 31.250 FPS (1536 SPF)
Bit depth                                : 16 bits
Compression mode                         : Lossy
Stream size                              : 426 MiB (9%)
Title                                    : 5.1 @ 448 kbps
Language                                 : English
Service kind                             : Complete Main
Default                                  : No
Forced                                   : No

Text #1
ID                                       : 5
Format                                   : UTF-8
Codec ID                                 : S_TEXT/UTF8
Codec ID/Info                            : UTF-8 Plain Text
Duration                                 : 2 h 7 min
Bit rate                                 : 66 b/s
Count of elements                        : 1318
Stream size                              : 62.2 KiB (0%)
Language                                 : Ukrainian
Default                                  : Yes
Forced                                   : No

Text #2
ID                                       : 6
Format                                   : UTF-8
Codec ID                                 : S_TEXT/UTF8
Codec ID/Info                            : UTF-8 Plain Text
Duration                                 : 2 h 11 min
Bit rate                                 : 44 b/s
Count of elements                        : 1599
Stream size                              : 43.1 KiB (0%)
Language                                 : English
Default                                  : No
Forced                                   : No

Menu
00:00:00.000                             : :00:00:00.000
00:08:40.270                             : :00:08:40.270
00:18:55.718                             : :00:18:55.718
00:28:23.660                             : :00:28:23.660
00:38:34.187                             : :00:38:34.187
00:48:08.594                             : :00:48:08.594
00:58:19.246                             : :00:58:19.246
01:09:14.692                             : :01:09:14.692
01:17:26.392                             : :01:17:26.392
01:29:33.660                             : :01:29:33.660
01:38:02.085                             : :01:38:02.085
01:50:27.871                             : :01:50:27.871
01:59:04.471                             : :01:59:04.471
02:04:11.944                             : :02:04:11.944
Скріншоти



Джерело:
Особиста оцінка: 10 - без зайвих вагань рекомендую всім!
Та колекція "Гаррі Поттер. Всі 8 частин"


 Трекер:    Зареєстрований   

Завантажити / скачати фільм українською



відео для новачків



 Зареєстрований:   2018-03-16 23:17
 Розмір:   4.88 GB 
 Оцінка фільму:   9.2/10 (Голосів: 65)
   
Інші релізи
   Фантастичні звірі і де їх шукати / Fantastic Beasts and Where to Find Them (2016) UHD Remux 2160p 4K HDR H.265 Ukr/Eng | Sub Ukr/Eng Argentum  0 / 1   47.88 GB   2019-04-01 13:32 
   Фантастичні звірі і де їх шукати / Fantastic Beasts and Where to Find Them (2016) Ukr 5.1| Sub Uk srtr Bochys  4 / 0   426 MB   2017-11-02 11:56 
   Фантастичні звірі і де їх шукати / Fantastic Beasts and Where to Find Them (2016) DVD9 Eng/Cz/Rus/Ukr | Sub Eng/Cz/Est/Latv/Lith/Port/Rus/Ukr Bochys  7 / 0   6.55 GB   2017-10-30 13:03 
   Фантастичні звірі і де їх шукати / Fantastic Beasts and Where to Find Them (2016) 1080p 3D [Half OverUnder] Ukr/Eng | Sub Eng igor911  6 / 0   13.52 GB   2017-03-24 22:28 
   Фантастичні звірі і де їх шукати / Fantastic Beasts and Where to Find Them (2016) 720p-mini (60 fps) Drool  25 / 1   3.65 GB   2017-03-09 17:13 
   Фантастичні звірі і де їх шукати / Fantastic Beasts and Where to Find Them (2016) Remux 1080p Ukr/Eng | Sub Eng staf777  24 / 1   24.15 GB   2017-03-09 12:45 
   Фантастичні звірі і де їх шукати / Fantastic Beasts and Where to Find Them (2016) 1080p Ukr/Eng | Sub Eng Electroz  24 / 1   14.29 GB   2017-03-08 15:28 
   Фантастичні звірі і де їх шукати / Fantastic Beasts and Where to Find Them (2016) Covenant  39 / 4   1.45 GB   2017-03-08 14:50 
   Фантастичні звірі і де їх шукати / Fantastic Beasts and Where to Find Them (2016) 720p Ukr/Eng | Sub Eng 11FrYkT  25 / 0   5.76 GB   2017-03-08 13:23 
   Фантастичні звірі і де їх шукати / Fantastic Beasts and Where to Find Them (2016) AVC Ukr/Eng | Sub Eng 11FrYkT  42 / 0   2.18 GB   2017-03-08 13:09 
   Фантастичні звірі і де їх шукати / Fantastic Beasts and Where to Find Them (2016) Ukr/Eng Gelios  23 / 1   2.18 GB   2017-03-08 12:44 
Bochys 
Частий відвідувач


З нами з: 09.09.10
Востаннє: 19.05.19
Повідомлень: 49

2018-09-13 15:22  
А звук 5.1 дійсно з і тюнс?
igor911 
Модератор відео


З нами з: 18.01.08
Востаннє: 20.05.19
Повідомлень: 12504

2018-09-13 17:51  
Bochys, звичайно ні. Додав в опис твою примітку, раз автор релізу "забув".
FUFFUF_LEGAL 
Новенький


З нами з: 21.11.16
Востаннє: 20.11.18
Повідомлень: 3

2018-11-17 12:44  
д дня, а чому лише звук? на екрані засравка!!
Robar III 
Забанено
Забанено


З нами з: 18.08.11
Востаннє: 16.05.19
Повідомлень: 3991

2018-11-17 13:29  
igor302 написано:
Увага! Перед завантаженням переконайтесь, що ваш пристрій відтворення (та/або ПЗ) підтримують H.265 (HEVC) та 10 біт

Ваш часовий пояс: GMT + 2 Години

Нова тема   Відповісти