Три білборди під Еббінґом, Міссурі / Three Billboards Outside Ebbing, Missouri (2017) 1080p H.265 2xUkr/Eng | Sub Ukr/Eng

Нові коментарі

Нова тема   Відповісти
Автор Повідомлення
igor302 
Свій


З нами з: 27.10.11
Востаннє: 15.11.18
Повідомлень: 108

2018-03-16 13:01  
Три білборди під Еббінґом, Міссурі / Three Billboards Outside Ebbing, Missouri (2017) 1080p H.265 2xUkr/Eng | Sub Ukr/Eng

Три білборди під Еббінґом, Міссурі / Three Billboards Outside Ebbing, Missouri (2017) 1080p H.265 2xUkr/Eng | Sub Ukr/Eng


Жанр: драма, кримінальний
Країна: США, Велика Британія



Кінокомпанія: Fox Searchlight Pictures | Blueprint Pictures
Режисер: Мартін МакДонаф
Актори: Френсіс Макдорманд, Вуді Гаррельсон, Сем Роквелл, Джон Говкс, Пітер Дінклейдж, Лукас Геджес, Кетрін Ньютон, Самара Вівінґ, Калеб Лендрі Джонс, Еббі Корніш

Сюжет:
У центрі сюжету жінка, яка вийшла на стежку війни з поліцією міста, що відмовилася розслідувати вбивство її дочки.


Тривалість: 01:55:04
Якість: HEVC 1080p
Відео:
кодек: H.265 (HEVC)
розмір кадру: 1920 х 804
бітрейт: 4 223 кб/с
бітова глибина: 10 біт
Увага! Перед завантаженням переконайтесь, що ваш пристрій відтворення (та/або ПЗ) підтримують H.265 (HEVC) та 10 біт

Аудіо # 1:
мова: українська | Студія НеЗупиняйПродакшн
переклад: професійний багатоголосий закадровий
кодек: 5.1
бітрейт: 1 509 кб/с
Переклад : Федора Сидорука


Аудіо # 2:
мова: українська
переклад: професійний дубльований
кодек: 5.1
бітрейт: 448 кб/с

Аудіо # 3:
мова: англійська
переклад: оригінал
кодек: 5.1
бітрейт: 448 кб/с

Субтитри # 1-2:
мова: українська (Forced, Full)
тип: програмні (м'які)
формат: *.srt

Субтитри # 3-4:
мова: англійська (Full, SDH)
тип: програмні (м'які)
формат: *.srt


Info
Код:
General
Unique ID                                : 331586274406355649297102638735036519535 (0xF9753189649996CAA26367DC07B0146F)
Complete name                            : E:\Video\Three Billboards Outside Ebbing Missouri (2017) 1080p H.265 [2xUKR_ENG].
Format                                   :
Format version                           : Version 4 / Version 2
File size                                : 5.34 GiB
Duration                                 : 1 h 55 min
Overall bit rate                         : 6 631 kb/s
Movie name                               : Three Billboards Outside Ebbing Missouri (2017)
Encoded date                             : UTC 2018-09-10 10:22:05
Writing application                      : v20.0.0 ('I Am The Sun') 32-bit
Writing library                          : libebml v1.3.5 + v1.4.8
Cover                                    : Yes
Attachments                              : cover

Video
ID                                       : 1
Format                                   : HEVC
Format/Info                              : High Efficiency Video Coding
Format profile                           : Main [email protected]@High
Codec ID                                 : V_MPEGH/ISO/HEVC
Duration                                 : 1 h 55 min
Bit rate                                 : 4 223 kb/s
Width                                    : 1 920 pixels
Height                                   : 804 pixels
Display aspect ratio                     : 2.40:1
Frame rate mode                          : Constant
Frame rate                               : 23.976 (24000/1001) FPS
Color space                              : YUV
Chroma subsampling                       : 4:2:0
Bit depth                                : 10 bits
Bits/(Pixel*Frame)                       : 0.114
Stream size                              : 3.40 GiB (64%)
Writing library                          : x265 2.6+32-b763c22920f6:[Windows][MSVC 1900][64 bit] 10bit
Encoding settings                        : cpuid=1173503 / frame-threads=4 / numa-pools=16 / wpp / no-pmode / no-pme / no-psnr / no-ssim / log-level=2 / input-csp=1 / input-res=1920x804 / interlace=0 / total-frames=165934 / level-idc=41 / high-tier=1 / uhd-bd=0 / ref=5 / no-allow-non-conformance / no-repeat-headers / annexb / no-aud / no-hrd / info / hash=0 / no-temporal-layers / open-gop / min-keyint=23 / keyint=240 / gop-lookahead=0 / bframes=8 / b-adapt=2 / no-b-pyramid / bframe-bias=0 / rc-lookahead=60 / lookahead-slices=4 / scenecut=40 / radl=0 / no-intra-refresh / ctu=64 / min-cu-size=8 / rect / amp / max-tu-size=32 / tu-inter-depth=3 / tu-intra-depth=3 / limit-tu=1 / rdoq-level=2 / dynamic-rd=0.00 / no-ssim-rd / signhide / no-tskip / nr-intra=0 / nr-inter=0 / no-constrained-intra / no-strong-intra-smoothing / max-merge=3 / limit-refs=2 / limit-modes / me=3 / subme=7 / merange=57 / temporal-mvp / weightp / weightb / no-analyze-src-pics / deblock=-3:-3 / no-sao / no-sao-non-deblock / rd=6 / no-early-skip / no-rskip / no-fast-intra / no-tskip-fast / no-cu-lossless / b-intra / no-splitrd-skip / rdpenalty=0 / psy-rd=2.00 / psy-rdoq=1.00 / no-rd-refine / no-lossless / cbqpoffs=-2 / crqpoffs=-2 / rc=crf / crf=18.0 / qcomp=0.60 / qpstep=4 / stats-write=0 / stats-read=0 / vbv-maxrate=50000 / vbv-bufsize=50000 / vbv-init=0.9 / crf-max=0.0 / crf-min=0.0 / ipratio=1.40 / pbratio=1.30 / aq-mode=1 / aq-strength=1.00 / cutree / zone-count=1 / zones: / start-frame=159126 / end-frame=165934 / qp=35 / no-strict-cbr / qg-size=32 / no-rc-grain / qpmax=69 / qpmin=0 / no-const-vbv / sar=1 / overscan=0 / videoformat=5 / range=0 / colorprim=2 / transfer=2 / colormatrix=2 / chromaloc=0 / display-window=0 / max-cll=0,0 / min-luma=0 / max-luma=1023 / log2-max-poc-lsb=8 / vui-timing-info / vui-hrd-info / slices=1 / no-opt-qp-pps / no-opt-ref-list-length-pps / no-multi-pass-opt-rps / scenecut-bias=0.05 / no-opt-cu-delta-qp / no-aq-motion / no-hdr / no-hdr-opt / no-dhdr10-opt / analysis-reuse-level=5 / scale-factor=0 / refine-intra=0 / refine-inter=0 / refine-mv=0 / no-limit-sao / ctu-info=0 / no-lowpass-dct / refine-mv-type=0 / copy-pic=1
Default                                  : Yes
Forced                                   : No

Audio #1
ID                                       : 2
Format                                   :
Format/Info                              : Digital Theater Systems
Codec ID                                 : A_DTS
Duration                                 : 1 h 55 min
Bit rate mode                            : Constant
Bit rate                                 : 1 509 kb/s
Channel(s)                               : 6 channels
Channel positions                        : Front: L C R, Side: L R, LFE
Sampling rate                            : 48.0 kHz
Frame rate                               : 93.750 FPS (512 SPF)
Bit depth                                : 24 bits
Compression mode                         : Lossy
Stream size                              : 1.22 GiB (23%)
Title                                    : 5.1 @ 1536 kbps - НеЗупиняйПродакшн
Language                                 : Ukrainian
Default                                  : Yes
Forced                                   : No

Audio #2
ID                                       : 3
Format                                   : AC-3
Format/Info                              : Audio Coding 3
Codec ID                                 : A_AC3
Duration                                 : 1 h 55 min
Bit rate mode                            : Constant
Bit rate                                 : 448 kb/s
Channel(s)                               : 6 channels
Channel positions                        : Front: L C R, Side: L R, LFE
Sampling rate                            : 48.0 kHz
Frame rate                               : 31.250 FPS (1536 SPF)
Bit depth                                : 16 bits
Compression mode                         : Lossy
Stream size                              : 370 MiB (7%)
Title                                    : 5.1 @ 448 kbps -  Blu-ray
Language                                 : Ukrainian
Service kind                             : Complete Main
Default                                  : No
Forced                                   : Yes

Audio #3
ID                                       : 4
Format                                   : AC-3
Format/Info                              : Audio Coding 3
Codec ID                                 : A_AC3
Duration                                 : 1 h 55 min
Bit rate mode                            : Constant
Bit rate                                 : 448 kb/s
Channel(s)                               : 6 channels
Channel positions                        : Front: L C R, Side: L R, LFE
Sampling rate                            : 48.0 kHz
Frame rate                               : 31.250 FPS (1536 SPF)
Bit depth                                : 16 bits
Compression mode                         : Lossy
Stream size                              : 370 MiB (7%)
Title                                    : Original
Language                                 : English
Service kind                             : Complete Main
Default                                  : No
Forced                                   : No

Text #1
ID                                       : 5
Format                                   : UTF-8
Codec ID                                 : S_TEXT/UTF8
Codec ID/Info                            : UTF-8 Plain Text
Duration                                 : 50 min 29 s
Bit rate                                 : 1 b/s
Count of elements                        : 9
Stream size                              : 421 Bytes (0%)
Title                                    : Forced
Language                                 : Ukrainian
Default                                  : Yes
Forced                                   : Yes

Text #2
ID                                       : 6
Format                                   : UTF-8
Codec ID                                 : S_TEXT/UTF8
Codec ID/Info                            : UTF-8 Plain Text
Duration                                 : 1 h 53 min
Bit rate                                 : 79 b/s
Count of elements                        : 1157
Stream size                              : 65.9 KiB (0%)
Title                                    : Full
Language                                 : Ukrainian
Default                                  : No
Forced                                   : No

Text #3
ID                                       : 7
Format                                   : UTF-8
Codec ID                                 : S_TEXT/UTF8
Codec ID/Info                            : UTF-8 Plain Text
Duration                                 : 1 h 46 min
Bit rate                                 : 59 b/s
Count of elements                        : 1555
Stream size                              : 46.4 KiB (0%)
Title                                    : Full
Language                                 : English
Default                                  : No
Forced                                   : No

Text #4
ID                                       : 8
Format                                   : UTF-8
Codec ID                                 : S_TEXT/UTF8
Codec ID/Info                            : UTF-8 Plain Text
Duration                                 : 1 h 49 min
Bit rate                                 : 60 b/s
Count of elements                        : 1659
Stream size                              : 48.8 KiB (0%)
Title                                    : SDH
Language                                 : English
Default                                  : No
Forced                                   : No

Menu
00:00:00.000                             : en:00:00:00.000
00:05:42.092                             : en:00:05:42.092
00:08:56.911                             : en:00:08:56.911
00:12:50.019                             : en:00:12:50.019
00:19:46.644                             : en:00:19:46.644
00:23:43.547                             : en:00:23:43.547
00:27:36.363                             : en:00:27:36.363
00:31:35.769                             : en:00:31:35.769
00:35:08.690                             : en:00:35:08.690
00:40:54.827                             : en:00:40:54.827
00:44:35.715                             : en:00:44:35.715
00:49:18.789                             : en:00:49:18.789
00:55:35.916                             : en:00:55:35.916
00:59:56.134                             : en:00:59:56.134
01:04:09.888                             : en:01:04:09.888
01:10:55.293                             : en:01:10:55.293
01:15:36.699                             : en:01:15:36.699
01:23:08.734                             : en:01:23:08.734
01:27:24.489                             : en:01:27:24.489
01:35:49.702                             : en:01:35:49.702
01:40:32.693                             : en:01:40:32.693
01:44:02.194                             : en:01:44:02.194
01:46:56.910                             : en:01:46:56.910
01:49:55.005                             : en:01:49:55.005
Скріншоти




Джерело:
Особиста оцінка: 10 - без зайвих вагань рекомендую всім!


Авторський реліз (завантажувати можна без реєстрації)
 Трекер:    Зареєстрований   

Завантажити / скачати фільм українською



відео для новачків



 Зареєстрований:   2018-09-10 12:36
 Розмір:   5.34 GB 
 Оцінка фільму:   8.2/10 (Голосів: 21)
   
leicheman 
Відео Гуртом - підтримка та поширення
Відео Гуртом - підтримка та поширення


З нами з: 03.07.14
Востаннє: 19.11.18
Повідомлень: 2939

2018-03-16 13:32  
Чому не додали озвучення від НеЗупиняйПродакшин ?
pompalompaua 
Новенький


З нами з: 29.09.17
Востаннє: 16.11.18
Повідомлень: 1

2018-03-16 13:40  
Доброго дня, скажіть будьласка переклад одаптований? Питаю тому що чув ніби цей фільм краще дивитись не професійним озвученням.
igor302 
Свій


З нами з: 27.10.11
Востаннє: 15.11.18
Повідомлень: 108

2018-03-16 14:01  
leicheman написано:
Чому не додали озвучення від НеЗупиняйПродакшин ?

Чи не могли б Ви надати мені доріжку? Після цього додам!

leicheman 
Відео Гуртом - підтримка та поширення
Відео Гуртом - підтримка та поширення


З нами з: 03.07.14
Востаннє: 19.11.18
Повідомлень: 2939

2018-03-16 14:03  
igor911 
Відео Гуртом
Відео Гуртом


З нами з: 18.01.08
Востаннє: 19.11.18
Повідомлень: 11424

2018-03-16 14:46  
скріншоти мають бути в png форматі
Bod_zik99 
VIP


З нами з: 28.12.13
Востаннє: 18.11.18
Повідомлень: 1430

2018-03-16 16:11  
Чому всі так люблять цей H.265,я особисто не можу дивитись мильний 1080
Lyolic 
VIP


З нами з: 04.08.09
Востаннє: 19.11.18
Повідомлень: 313

2018-03-18 01:35  
Bod_zik99
А чому його не любити?
Як на мене, картинка не відрізняється від ремукса. Хоча я б бітрейт побільше ставив би...

uaxpasha 
Поважний учасник


З нами з: 05.08.12
Востаннє: 18.11.18
Повідомлень: 231

2018-03-18 14:39  
Bod_zik99
Менший розмір за ту ж якість.

Хто зрівнював переклади, може щось сказати який ліпше? я дивився НеЗупиняйПродакшн, то переклад чудовий

zoomymba2012 
VIP


З нами з: 08.01.15
Востаннє: 18.11.18
Повідомлень: 526

2018-03-20 18:51  
Bod_zik99
Мильний?! Або у вас пристрій не підтримує цей кодек, або ви просто не бачили фільм в h265

Lyolic 
VIP


З нами з: 04.08.09
Востаннє: 19.11.18
Повідомлень: 313

2018-03-21 01:21  
Було зовсім нудно Happy
Перший Remux, другий HEVC
Скріни






CrimsonAndrew 
Свій


З нами з: 02.04.13
Востаннє: 31.10.18
Повідомлень: 137

2018-03-28 13:05  
Надзвичайно нудний фільм. Майже настільки ж нудний як і Прибуття, та Форма води. Ні екшну, ні сюжету, ні змісту, ні навіть логіки у діях персонажів. Особливо вразила згадка про пеніс посеред фільму. Так буває приємно, сідаєш усією сім'єю дивитися фільм, а головний герой або раптом починає лизати вагіну дружині (як у Зниклій), або зовсім другорядний персонаж цілує дружину і каже, що зовсім непомітно, що вона проблуювалася, а дружина у відповідь каже, що у нього гарний член (як у нашому випадку). Справжня американська ідилія. Як нам не вистачає цих цінностей та такого "високоякісного" кіно.
Lyolic 
VIP


З нами з: 04.08.09
Востаннє: 19.11.18
Повідомлень: 313

2018-03-28 13:13  
CrimsonAndrew
екшну майже нема (ну фільм такий), сюжет є, зміст є, логіка у діях... все як в житті Happy
Ну "не зайшов" фільм, буває Happy

Patriot_ukr 
VIP


З нами з: 06.04.15
Востаннє: 18.11.18
Повідомлень: 2278

2018-03-28 17:07  
CrimsonAndrew, зараз би R-Rated фільми сім'єю дивитись
vash1 
Свій


З нами з: 16.03.16
Востаннє: 18.11.18
Повідомлень: 137

2018-05-18 13:04  
Lyolic, дякую!
Maters 
VIP


З нами з: 27.03.12
Востаннє: 18.11.18
Повідомлень: 1565

2018-09-09 09:01  
Вже трохи часу минуло після перегляду і враження вже трохи не ті, але от наткнувся на нього і вирішив почитати що люди пишуть, та й свої пару копійок вставити)
Як на мене, то фраза з членом точно не той фактор, що визначає якість фільму. Це слово зараз нікого не здивує, хіба що дитина в років 5 може спитати "..а що то за слово таке..". Але фільм розрахований трохи на іншу аудиторію.
Мені в цьому фільмі якраз таки дуже сподобався цей специфічний гумор і діалоги. Якось невимушено правдиво вони спілкувались, без лишньої водички, що з перших хвилин дало зрозуміти, що цей фільм якийсь не такий як інші. Ну і актори просто шикарні. Головна героїня далеко не симпатюля, але дуже круто зіграла і нею швидко починаєш захоплюватись.
Гарний фільм, 9/10

igor302 
Свій


З нами з: 27.10.11
Востаннє: 15.11.18
Повідомлень: 108

2018-09-10 12:38  
Замінив доріжку на кращу на

Ваш часовий пояс: GMT + 2 Години

Нова тема   Відповісти