Теорія Великого Вибуху (Сезон 9, Серія 1 з 24) / The Big Bang Theory (Season 9, Episode 1 of 24) (2015-2016) 720р Ukr/Eng

Нові коментарі

Нова тема   Відповісти
Останній раз роздавалося usmanrv (2019-06-17)
Автор Повідомлення
Річард 
Відео Гуртом - озвучення
Відео Гуртом - озвучення


З нами з: 17.01.10
Востаннє: 17.08.19
Повідомлень: 568

2018-03-15 20:21  
Теорія Великого Вибуху / The Big Bang Theory (Сезон 9, Серія 1-1 із 24) (2015-2016) 720р Ukr/Eng

Теорія Великого Вибуху (Сезон 9, Серія 1 з 24) / The Big Bang Theory (Season 9, Episode 1 of 24) (2015-2016) 720р Ukr/Eng


Жанр: комедія, ситком
Країна: США



Кінокомпанія / телеканал: Chuck Lorre Productions, Warner Bros. Television
Режисер: Марк Седровські
Актори/ролі озвучують: Джоні Ґалецкі, Джим Парсонс, Кейлі Куоко, Саймон Гельберґ, Кунал Наяр, Меліса Роч, Маєм Бієлік та інші

Сюжет:
Двоє блискучих фізиків, Леонард та Шелдон, розумники, які знаються на тому, як "працює всесвіт". Але їх геніальність ані трішечки не допомагає їм у спілкуванні з людьми, особливо жінками. Все змінюється, коли по сусідству поселяється красуня Пенні. А ще у хлопців є два дивакуватих друга: Говард, який полюбляє використовувати фрази різними мовами і Радж, який втрачає дар мови при появі жінк


Тривалість: 1 серія: ~23хв (цілком серій: 24)
Перелік серій
1. Подружній моментум
Якість:
Відео:
кодек:
розмір кадру: 1280х720
бітрейт: 2539 кб/с

Аудіо # 1:
мова: українська
переклад: одноголосий закадровий
кодек: 2.0
бітрейт: 192 кб/с

Аудіо # 2:
мова: англійська
переклад: оригінал
кодек: 5.1
бітрейт: 384 кб/с
Info
Загальна інформація
General
Unique ID : 173754291667718712854204444590767336315 (0x82B7DBFCF9FCFF59B427129E0387EB7B)
Complete name : F:\The Big Bang Theory (9 season) [720p]\Теорія_Великого_Вибуху_9_1_[D_one].
Format :
Format version : Version 2
File size : 461 MiB
Duration : 20 min 32 s
Overall bit rate : 3 137 kb/s
Encoded date : UTC 2018-03-15 20:49:11
Writing application : v5.0.1 ('Es ist Sommer') built on Oct 30 2011 21:53:49
Writing library : libebml v1.2.2 + v1.3.0

Video
ID : 1
Format : AVC
Format/Info : Advanced Video Codec
Format profile : [email protected]
Format settings : CABAC / 8 Ref Frames
Format settings, CABAC : Yes
Format settings, RefFrames : 8 frames
Codec ID : V_MPEG4/ISO/AVC
Duration : 20 min 32 s
Bit rate : 2 498 kb/s
Width : 1 280 pixels
Height : 720 pixels
Display aspect ratio : 16:9
Frame rate mode : Constant
Frame rate : 23.976 (24000/1001) FPS
Color space : YUV
Chroma subsampling : 4:2:0
Bit depth : 8 bits
Scan type : Progressive
Bits/(Pixel*Frame) : 0.113
Stream size : 367 MiB (80%)
Writing library : core 148 r2597 e86f3a1
Encoding settings : cabac=1 / ref=8 / deblock=1:-2:-2 / analyse=0x3:0x113 / me=umh / subme=9 / psy=1 / psy_rd=1.00:0.00 / mixed_ref=1 / me_range=24 / chroma_me=1 / trellis=1 / 8x8dct=1 / cqm=0 / deadzone=21,11 / fast_pskip=0 / chroma_qp_offset=-2 / threads=18 / lookahead_threads=2 / sliced_threads=0 / nr=0 / decimate=1 / interlaced=0 / bluray_compat=0 / constrained_intra=0 / bframes=5 / b_pyramid=2 / b_adapt=2 / b_bias=0 / direct=3 / weightb=1 / open_gop=0 / weightp=2 / keyint=250 / keyint_min=23 / scenecut=40 / intra_refresh=0 / rc_lookahead=50 / rc=crf / mbtree=1 / crf=18.0 / qcomp=0.60 / qpmin=0 / qpmax=69 / qpstep=4 / ip_ratio=1.40 / aq=1:1.00
Language : English
Default : No
Forced : No

Audio #1
ID : 2
Format : AC-3
Format/Info : Audio Coding 3
Format settings, Endianness : Big
Codec ID : A_AC3
Duration : 20 min 32 s
Bit rate mode : Constant
Bit rate : 192 kb/s
Channel(s) : 2 channels
Channel positions : Front: L R
Sampling rate : 48.0 kHz
Frame rate : 31.250 FPS (1536 SPF)
Bit depth : 16 bits
Compression mode : Lossy
Stream size : 28.2 MiB (6%)
Language : Ukrainian
Service kind : Complete Main
Default : Yes
Forced : No

Audio #2
ID : 3
Format : AC-3
Format/Info : Audio Coding 3
Format settings, Endianness : Big
Codec ID : A_AC3
Duration : 20 min 32 s
Bit rate mode : Constant
Bit rate : 384 kb/s
Channel(s) : 6 channels
Channel positions : Front: L C R, Side: L R, LFE
Sampling rate : 48.0 kHz
Frame rate : 31.250 FPS (1536 SPF)
Bit depth : 16 bits
Compression mode : Lossy
Delay relative to video : 100 ms
Stream size : 56.4 MiB (12%)
Language : English
Service kind : Complete Main
Default : No
Forced : No


Реліз від:

Переклад: Gedet
Ролі озвучив: D_one (Дмитро Кравченко)





Авторський реліз (завантажувати можна без реєстрації)
 Трекер:    Зареєстрований   

Завантажити / скачати серіал українською



відео для новачків



 Зареєстрований:   2018-03-15 23:51
 Розмір:   461 MB 
 Оцінка серіалу:   10/10 (Голосів: 7)
   
11FrYkT 
Модератор відео


З нами з: 20.02.11
Востаннє: 16.08.19
Повідомлень: 6128

2018-03-15 22:37  
Річард написано:
Muxing mode : Header stripping

перемуксуйте з вимкненням цієї функції
Річард написано:
Теорія Великого Вибуху / The Big Bang Theory (Сезон 9, Серія 1-1 із 24) (2015-2016) 720р

в заголовку вкажіть доріжки

Річард 
Відео Гуртом - озвучення
Відео Гуртом - озвучення


З нами з: 17.01.10
Востаннє: 17.08.19
Повідомлень: 568

2018-03-15 23:54  
►▶▸Прохання перезавантажити, файл було перезалито!◂◀◄

leicheman 
Відео Гуртом - підтримка та поширення
Відео Гуртом - підтримка та поширення


З нами з: 03.07.14
Востаннє: 18.08.19
Повідомлень: 3886

2018-03-16 00:19  
Річард написано:
кодек: MP3 2.0

2.0
Річард написано:
бітрейт: 256 кб/с

192кб/с

havryk 
VIP


З нами з: 29.06.10
Востаннє: 17.08.19
Повідомлень: 820

2018-03-16 00:21  
Потрібно перенести у розділ HD.
Річард 
Відео Гуртом - озвучення
Відео Гуртом - озвучення


З нами з: 17.01.10
Востаннє: 17.08.19
Повідомлень: 568

2018-03-16 00:33  
leicheman
дякую прогледів Happy

bot 
робот


З нами з: 30.09.07
Востаннє: 26.05.05
Повідомлень: 21765

2018-03-16 12:17  
Тему перенесено з Телесеріали до форуму Серіали в HD


11FrYkT

Cheslovmk 
Новенький


З нами з: 07.10.17
Востаннє: 03.07.19
Повідомлень: 5

2018-06-08 12:07  
Дякую, а більш не очікується?
-_-B_Е_N_D_Е_R-_- 
Забанено
Забанено


З нами з: 30.05.18
Востаннє: 24.06.18
Повідомлень: 282

2018-06-08 13:36  
Він ж іде на парамаунті, тільки не знати на якій мові
For_friends_HD 
Частий відвідувач


З нами з: 09.09.12
Востаннє: 19.07.19
Повідомлень: 31

2018-09-09 03:32  
Парамаунт пообіцяв перекласти увесь серіал українською і вже запустив показ українською.
Ваш часовий пояс: GMT + 2 Години

Нова тема   Відповісти